Ссылка на приватное зеркало нашего сайта всего за 1$. Внимание количество ограничено!!!

2 сезон

iTunes

1 сезон

1

2 сезон

2 сезон

iTunes

1 сезон

RePack

30

Новинка

ВАЖНО

ИГРА 18+

pack

RePack

MK11
pack

Забери бонус

RePack

jed

!!Акция!!

Alien_Rage

RePack

fifa19

RePack

Assassins Creed: Odyssey

RePack

NEED FOR SPEED™ PAYBACK

4 сезон

9 сезон

Бесстыжие 9 сезон

Все сериалы

все сериалы на PB.wtf

RePack

FAR CRY 5
  

Секс по дружбе / Friends with Benefits / Сезон: 1 / Серии: 1 (13) (Дэвид Добкин) [2011, комедия, WEB-DL 720p] pb.wtf

Секс по дружбе через торрент pb.wtf

Размер: 673 MB | Добавлен: 9 лет 3 мес. назад | Торрент скачан:33 раза
Скачать  

08-08-2011 15:54 Секс по дружбе Скачать торрент  

Секс по дружбе / Friends with Benefits



Год выпуска: 2011
Страна: США, NBC
Жанр: Комедия
Продолжительность: ~ 00:22:00
Перевод: отсутствует
Субтитры: Русские внешние (MuxaHuk)


Режиссер: Дэвид Добкин
Продюссер: Джефф Клеман, Джон Амодео, Кристофер Дж. Коннолли
Сценарий: Isaac Aptaker, Элизабет Бергер, Валери Брейман


В ролях: Дэннил Эклс, Райан Хансен, Зак Креггер, Андре Холлэнд, Джессика Лукас, Эль Янг, Патрик Хьюсингер.



Пятеро друзей ищут любовь всей своей жизни, но а пока соглашаются на меньшее, но столь необходимое.




Качество: WEB-DL 720p
Формат: MKV
Видео кодек: H.264
Аудио кодек: AC3
Видео: AVC, 1280x720 (16:9), 23,976 fps, 4084 Кбит/с, 0.185 bit/pixel
Аудио: 48 kHz, AC3 Dolby Digital, 6 ch, ~384 kbps
General
Complete name : Friends.With.Benefits.S01.720p.WEB.DL\Friends.With.Benefits.S01E01.Pilot.720p.WEB.DL.DD5.1.H.264.TB.mkv
Format : Matroska
Format version : Version 2
File size : 673 MiB
Duration : 21mn 37s
Overall bit rate : 4 352 Kbps
Movie name : Friends.With.Benefits.S01E01.Pilot.720p.WEB.DL.DD5.1.H.264.TB.mkv 1541
Encoded date : UTC 2011-08-06 07:36:36
Writing application : mkvmerge v4.4.0 ('Die Wiederkehr') built on Oct 31 2010 21:52:48
Writing library : libebml v1.0.0 + libmatroska v1.0.0

Video
ID : 1
Format : AVC
Format/Info : Advanced Video Codec
Format profile : High@L3.1
Format settings, CABAC : No
Format settings, ReFrames : 2 frames
Format settings, GOP : M=2, N=24
Codec ID : V_MPEG4/ISO/AVC
Duration : 21mn 37s
Bit rate : 3 882 Kbps
Width : 1 280 pixels
Height : 720 pixels
Display aspect ratio : 16:9
Frame rate : 23.976 fps
Color space : YUV
Chroma subsampling : 4:2:0
Bit depth : 8 bits
Scan type : Progressive
Bits/(Pixel*Frame) : 0.176
Stream size : 600 MiB (89%)
Language : English
Color primaries : BT.709-5, BT.1361, IEC 61966-2-4, SMPTE RP177
Transfer characteristics : BT.709-5, BT.1361
Matrix coefficients : BT.709-5, BT.1361, IEC 61966-2-4 709, SMPTE RP177

Audio
ID : 2
Format : AC-3
Format/Info : Audio Coding 3
Mode extension : CM (complete main)
Codec ID : A_AC3
Duration : 21mn 37s
Bit rate mode : Constant
Bit rate : 384 Kbps
Channel(s) : 6 channels
Channel positions : Front: L C R, Side: L R, LFE
Sampling rate : 48.0 KHz
Bit depth : 16 bits
Compression mode : Lossy
Stream size : 59.4 MiB (9%)
Language : English
при каждом добавлении создётся новый торрент. Чтобы начать докачку новой серии, пользователям необходимо сделать следующее:

(1) остановить скачивание,
(2) удалить старый торрент у себя из клиента (старые серии удалять не надо),
(3) скачать новый торрент и запустить его у себя в клиенте вместо старого, при этом указать клиенту путь в старую папку куда и должно происходить скачивание новых серий.

Ваш клиент при этом должен произвести хеширование (проверку) старой папки (если не производит сам - помогите ему сделать это), и будет докачивать только те серии которых у вас ещё нет. Старые серии при этом не удаляются, а продолжают раздаваться!

Eсли вы уже удалили старые серии, то предотвратить повторную закачку старых серий можно, отжав галочку в соответсвующих местах при запуске нового торрента. По возможности, желательно не удалять старые серии как можно дольше чтобы релизёр не столько продолжал раздавать старые серии, а смог сконцентрироваться на новых.

скриншот  скриншот  скриншот  скриншот  

pb.wtf



Скачать Секс по дружбе через торрент http://i26.fastpic.ru/big/2011/0808/be/58969be1fc873246495c15673a1872be.jpg Скачать фильм Секс по дружбе через торрент бесплантно в хорошем качестве В ролях: Дэннил Эклс, Райан Хансен, Зак Креггер, Андре Холлэнд, Джессика Лукас, Эль Янг, Патрик Хьюсингер. Пятеро друзей ищут любовь всей ... 4.5 10 4
Info! Золотая раздача, скачанное не засчитывается.
Торрент: Зарегистрирован [2011-08-08 15:54] · скачан: 33 раз
Статус: √ проверено
Размер: 673 MB
Как cкачать? Как скачать Секс по дружбе через торрент | qTorrent

28-11-2019 20:33  

Отключить всю рекламу на сайте

    Дорогой пользователь! Огромная просьба, поблагодарите релизера, оцените раздачу и оставьте свои комментарий, если Вы скачали Секс по дружбе через торрент бесплатно! Внесите свою лепту в развитие PiratBit!
    Комментировать посты могут только пользователи прошедшие не сложную регистрацию
    Показать сообщения:    

    Секс по дружбе через торрент
    Скачать бесплатно Секс по дружбе
    Секс по дружбе скачать торрент
    Секс по дружбе смотреть онлайн
    Cкачать фильм Секс по дружбе бесплатно
    Секс по дружбе скачать торрент в хорошем качестве
    Секс по дружбе смотреть онлайн бесплатно в хорошем качестве


    Вы не можете начинать темы
    Вы не можете отвечать на сообщения
    Вы не можете редактировать свои сообщения
    Вы не можете удалять свои сообщения
    Вы не можете голосовать в опросах
    Вы не можете прикреплять файлы к сообщениям
    Вы можете скачивать файлы