1 сезон

1 сезон

iTunes

1

КиноПоиск HD

Кинопоиск HD

iTunes

13

1 сезон

RePack

30

Ultimate

ВАЖНО

ИГРА 18+

pack

RePack

MK11
pack

Легкие деньги

RePack

jed

RePack

fifa19

RePack

RDR2

RePack

NEED FOR SPEED™ PAYBACK

4 сезон

9 сезон

Бесстыжие 9 сезон

Все сериалы

все сериалы на PB.wtf

RePack

FAR CRY 5
  
Magnet ссылка

Тренер Картер / Coach Carter (Томас Картер / Thomas Carter) [2005 г., Драма, Спорт, HDRip] pb.wtf

Тренер Картер через торрент pb.wtf

Размер: 1.46 GB | Добавлен: 9 лет 8 мес. назад | Торрент скачан:1110 раз
Скачать  

10-08-2011 11:16 Тренер Картер Скачать торрент  

Тренер Картер / Coach CarterIt begins on the street. It ends here.»


Год выпуска: 2005
Страна: США, Германия
Жанр: драма, спорт
Продолжительность: 126 мин
Перевод: Профессиональный (многоголосый, закадровый)


Режиссер: Томас Картер
Продюссер: Дэвид Гэйл, Брайан Роббинс, Майкл Толлин
Сценарий: Марк Шван, Джон Гэйтинс


бюджет: $30 000 000
Премьера в мире: 13 января 2005


В ролях: Сэмюэль Л.Джексон /Samuel L.Jackson/, Роб Браун /Rob Brown/, Роберт Ричард /Robert Ri'chard/, Рик Гонзалез /Rick Gonzalez/, Нана Гбивонио /Nana Gbewonyo/, Энтвон Тэннер /Antwon Tanner/, Чэннинг Татум /Channing Tatum/, Ашанти /Ashanti/



Фильм основан на реальной истории баскетбольного тренера Кена Картера, поразившей в свое время Соединенные Штаты. Его команда была практически непобедима и уверенно шла к победе в чемпионате, когда однажды накануне ответственного матча тренер запер ребят в спортзале, не позволив продолжить борьбу... из-за хронической академической неуспеваемости игроков. Его подход, который можно выразить во фразе "меня волнуют не только победы, меня интересует будущее моей команды" вызвал тогда много противоречий.




Качество: HDRip
Формат: AVI
Видео кодек: XviD
Аудио кодек: AC3
Видео: 720x304 (2.37:1), 23.976 fps, XviD build 47 ~1125 kbps avg, 0.21 bit/pixel
Аудио: 48 kHz, AC3 Dolby Digital, 3/2 (L,C,R,l,r) + LFE ch, ~448.00 kbps avg





Общее
Полное имя : D:\торенты\1\Trener_Karter_[torrents.ru]_by_Scarabey.avi
Формат : AVI
Формат/Информация : Audio Video Interleave
Размер файла : 1,46 Гбайт
Продолжительность : 2 ч. 16 м.
Общий поток : 1533 Кбит/сек
Программа кодирования : VirtualDubMod 1.5.10.2 (build 2540/release)
Библиотека кодирования : VirtualDubMod build 2540/release

Видео
Идентификатор : 0
Формат : MPEG-4 Visual
Профиль формата : Advanced Simple@L5
Параметр BVOP формата : 1
Параметр QPel формата : Нет
Параметр GMC формата : Без точки перехода
Параметр матрицы формата : Default (MPEG)
Идентификатор кодека : XVID
Идентификатор кодека/Подсказка : XviD
Продолжительность : 2 ч. 16 м.
Битрейт : 1076 Кбит/сек
Ширина : 720 пикс.
Высота : 304 пикс.
Соотношение сторон : 2,35:1
Частота кадров : 23,976 кадр/сек
Цветовое пространство : YUV
Подвыборка цветности : 4:2:0
Битовая глубина : 8 бит
Тип развёртки : Прогрессивная
Метод сжатия : С потерями
Бит/(Пиксели*Кадры) : 0.205
Размер потока : 1,02 Гбайт (70%)
Библиотека кодирования : XviD 1.2.0.dev47 (UTC 2006-11-01)

Аудио
Идентификатор : 1
Формат : AC-3
Формат/Информация : Audio Coding 3
Расширение режима : CM (complete main)
Идентификатор кодека : 2000
Продолжительность : 2 ч. 16 м.
Вид битрейта : Постоянный
Битрейт : 448 Кбит/сек
Каналы : 6 каналов
Расположение каналов : Front: L C R, Side: L R, LFE
Частота : 48,0 КГц
Битовая глубина : 16 бит
Метод сжатия : С потерями
Размер потока : 437 Мбайт (29%)
Выравнивание : Разделение по промежуткам
Продолжительность промежутка : 42 мс. (1,00 видеокадр)
Время предзагрузки промежутка : 500 ms
скриншот  скриншот  скриншот  скриншот  скриншот  скриншот  pb.wtf



Скачать Тренер Картер через торрент http://i25.fastpic.ru/big/2011/0810/19/d0367b3ea4bd90dfd1ff5b39eea0b219.png Скачать фильм Тренер Картер через торрент бесплантно в хорошем качестве В ролях: Сэмюэль Л.Джексон /Samuel L.Jackson/, Роб Браун /Rob Brown/, Роберт Ричард /Robert Ri'chard/, Рик Гонзалез /Rick Gonzalez/, Нана ... 9.9 10 11
Info! Золотая раздача, скачанное не засчитывается.
Торрент: Зарегистрирован [2011-08-10 11:16] · скачан: 1 110 раз
Статус: √ проверено
Размер: 1.46 GB
Как cкачать? Как скачать Тренер Картер через торрент | UTorrent

% Раздел Тема Автор DL S | L
Фильмы 2001-2005 [ 3.71 GB ] Тренер Картер / Coach Carter [2005 BDRip-AVC] MVO + Orig + sub mihis Скачать
3 | 0

28-11-2019 20:33  

Отключить всю рекламу на сайте

10-08-2011 12:05 Тренер Картер Скачать торрент  

Фильм отменный!!! Посмотреть стоит.pb.wtf



18-09-2011 11:35 Тренер Картер Скачать торрент  

да, фильм очень классный!pb.wtf



18-01-2013 18:21 Тренер Картер Скачать торрент  

на 5-м скрине нашел одного БЕЛОГО человека. Они еще живы? Это правда? КАК режиссер Томас Картер смог найти столь редкую особь для своего фильма!

p.s. как уже утомила темнота с экранов, скоро и на улице так ничего не увидишь, только глаза и рекламу LACALUT , а потом, потом все идешь дальше без денег и мобильника...pb.wtf



16-06-2014 21:43 Тренер Картер Скачать торрент  

раздачу плиз!pb.wtf



    Дорогой пользователь! Огромная просьба, поблагодарите релизера, оцените раздачу и оставьте свои комментарий, если Вы скачали Тренер Картер через торрент бесплатно! Внесите свою лепту в развитие PiratBit!
    Комментировать посты могут только пользователи прошедшие не сложную регистрацию
    Показать сообщения:    

    Тренер Картер через торрент
    Скачать бесплатно Тренер Картер
    Тренер Картер скачать торрент
    Тренер Картер смотреть онлайн
    Cкачать фильм Тренер Картер бесплатно
    Тренер Картер скачать торрент в хорошем качестве
    Тренер Картер смотреть онлайн бесплатно в хорошем качестве


    Вы не можете начинать темы
    Вы не можете отвечать на сообщения
    Вы не можете редактировать свои сообщения
    Вы не можете удалять свои сообщения
    Вы не можете голосовать в опросах
    Вы не можете прикреплять файлы к сообщениям
    Вы можете скачивать файлы