2 сезон

iTunes

1 сезон

1

iTunes

iTunes

iTunes

1 сезон

RePack

30

ИГРА 18+

pack

ВАЖНО

!!Акция!!

Alien_RageХит недели

RePack

MK11
pack

Забери бонус

RePack

jed

!!Акция!!

Alien_Rage

RePack

fifa19

RePack

Assassins Creed: Odyssey

RePack

NEED FOR SPEED™ PAYBACK

4 сезон

9 сезон

Бесстыжие 9 сезон

Все сериалы

все сериалы на PB.wtf

RePack

FAR CRY 5
  

Тринадцать привидений / Thir13en Ghosts (Стив Бек) [2001, ужасы, триллер, детектив, BDRip 720p] pb.wtf

Тринадцать привидений через торрент pb.wtf

Размер: 4.66 GB | Добавлен: 9 лет 2 мес. назад | Торрент скачан:77 раз
Скачать  

10-08-2011 14:36 Тринадцать привидений Скачать торрент  

Тринадцать привидений / Thir13en Ghosts«Terror Wants Company!»


Год выпуска: 2001
Страна: США, Канада
Жанр: ужасы, триллер, детектив
Продолжительность: 01:30:49
Перевод: Профессиональный (многоголосый, закадровый)


Режиссер: Стив Бек
Продюссер: Гилберт Адлер, Джоэл Силвер, Роберт Земекис
Сценарий: Робб Уайт, Бенжамин Карр, Ричард Д’Овидио


бюджет: $42 000 000
Премьера в мире: 23 октября 2001


В ролях: Тони Шалхуб, Эмбет Дэвидц, Мэттью Лиллард, Шеннон Элизабет, Алек Робертс, ДжейАр Борн, Ф. Мюррэй Абрахам, Мэттью Харрисон, Джейкоб Рапп



После смерти своего странного дядюшки Сайруса, Артур Критикос унаследовал его не менее странный дом. В этом причудливом здании все стены и пол из стекла, украшенного латинскими заклинаниями. В этом доме автоматические двери живут своей жизнью, открываясь и закрываясь в ритме, недоступном человеческому пониманию.
Не сразу Артур поймет, что, переступив порог этого жуткого особняка, он исполнит злую волю Сайруса и освободит дюжину мстительных призраков, обитающих в подвале. И тогда энергия духов приведет в действие агрегат, открывающий путь ко всей мощи потустороннего мира. Но для этого нужно, чтобы к черному зодиаку двенадцати привидений присоединилось еще одно…





Качество: BDRip
Формат: MKV
Видео кодек: H.264
Аудио кодек: AC3
Видео: 1280x688р (1,860), 23.976 fps, AVC MPEG4(x264), High@L5.1 ~6252 Kbps avg, 0.297 bit/pixel
Аудио #1: Русский 48 kHz, Dolby AC3, 6 ch, ~448 kbps avg [Профессиональный (многоголосый, закадровый)]
Аудио #2: Английский 48 kHz, Dolby AC3, 6 ch, ~640 kbps avg [Оригинал]

13 приведений, мой первый ужастик, который я посмотрела, мне было тогда 6 лет. Это самый не забываемый ужас, после просмотра, я долго помнила отдельные сюжеты этого фильма. Это конечно не самый страшный фильм ужасов, но смотреть его можно тысячи раз, и всегда будет открываться что-то новое.

Не хотелось бы получить такой домик в наследство. Фильм интересный, много мистики связанной с призраками.

10 из 10
Съёмки происходили в громадном особняке. За пять недель было построено более 40 декораций. Более, чем 45 тонн стали и 2500 тонн специального стекла было использовано для постройки дома, многие комнаты которого изготовлены полностью из стекла.


Общее
Уникальный идентификатор : 237286676014175391984587740665597340744 (0xB283C060994D6B8DB87E0E1AA6BB2C4
Полное имя : D:\Моя\Раздача\Тринадцать привидений\Thir13en.Ghosts.2001.BDRip.720p..mkv
Формат : Matroska
Версия формата : Version 2
Размер файла : 4,66 Гбайт
Продолжительность : 1 ч. 30 м.
Общий поток : 7341 Кбит/сек
Дата кодирования : UTC 2011-08-08 10:01:18
Программа кодирования : mkvmerge v4.0.0 ('The Stars were mine') сборка от Jun 6 2010 16:18:42
Библиотека кодирования : libebml v1.0.0 + libmatroska v1.0.0

Видео
Идентификатор : 1
Формат : AVC
Формат/Информация : Advanced Video Codec
Профиль формата : Main@L5.1
Параметр CABAC формата : Да
Параметр ReFrames формата : 8 кадров
Идентификатор кодека : V_MPEG4/ISO/AVC
Продолжительность : 1 ч. 30 м.
Битрейт : 6252 Кбит/сек
Ширина : 1280 пикс.
Высота : 688 пикс.
Соотношение сторон : 1,860
Частота кадров : 23,976 кадр/сек
Цветовое пространство : YUV
Подвыборка цветности : 4:2:0
Битовая глубина : 8 бит
Тип развёртки : Прогрессивная
Бит/(Пиксели*Кадры) : 0.296
Размер потока : 3,87 Гбайт (83%)
Библиотека кодирования : x264 core 56 svn-680
Настройки программы : cabac=1 / ref=5 / deblock=1:-1:-1 / analyse=0x1:0 / me=umh / subme=7 / brdo=1 / mixed_ref=1 / me_range=16 / chroma_me=1 / trellis=1 / 8x8dct=0 / cqm=0 / deadzone=21,11 / chroma_qp_offset=0 / threads=3 / nr=0 / decimate=1 / mbaff=0 / bframes=3 / b_pyramid=1 / b_adapt=1 / b_bias=0 / direct=1 / wpredb=1 / bime=1 / keyint=250 / keyint_min=25 / scenecut=40(pre) / rc=2pass / bitrate=6252 / ratetol=1.0 / rceq='blurCplx^(1-qComp)' / qcomp=0.60 / qpmin=10 / qpmax=51 / qpstep=4 / cplxblur=20.0 / qblur=0.5 / ip_ratio=1.40 / pb_ratio=1.30
Язык : English

Аудио #1
Идентификатор : 2
Формат : AC-3
Формат/Информация : Audio Coding 3
Расширение режима : CM (complete main)
Идентификатор кодека : A_AC3
Продолжительность : 1 ч. 30 м.
Вид битрейта : Постоянный
Битрейт : 448 Кбит/сек
Каналы : 6 каналов
Расположение каналов : Front: L C R, Side: L R, LFE
Частота : 48,0 КГц
Битовая глубина : 16 бит
Метод сжатия : С потерями
Размер потока : 291 Мбайт (6%)
Заголовок : AC3 at 448 Kbps
Язык : Russian

Аудио #2
Идентификатор : 3
Формат : AC-3
Формат/Информация : Audio Coding 3
Расширение режима : CM (complete main)
Идентификатор кодека : A_AC3
Продолжительность : 1 ч. 30 м.
Вид битрейта : Постоянный
Битрейт : 640 Кбит/сек
Каналы : 6 каналов
Расположение каналов : Front: L C R, Side: L R, LFE
Частота : 48,0 КГц
Битовая глубина : 16 бит
Метод сжатия : С потерями
Размер потока : 416 Мбайт (9%)
скриншот  скриншот  скриншот  скриншот  скриншот  скриншот  pb.wtf



Скачать Тринадцать привидений через торрент http://i18.fastpic.ru/big/2011/0810/14/10550bace0eec077dce0a1af73f70f14.jpg Скачать фильм Тринадцать привидений через торрент бесплантно в хорошем качестве В ролях: Тони Шалхуб, Эмбет Дэвидц, Мэттью Лиллард, Шеннон Элизабет, Алек Робертс, ДжейАр Борн, Ф. Мюррэй Абрахам, Мэттью Харрисон, Джейкоб ... 7.8 10 4
Info! Золотая раздача, скачанное не засчитывается.
Торрент: Зарегистрирован [2011-08-10 14:36] · скачан: 77 раз
Статус: √ проверено
Размер: 4.66 GB
Как cкачать? Как скачать Тринадцать привидений через торрент | qTorrent

% Раздел Тема Автор DL S | L
Фильмы [HD 720p, 1080p] (Хороший звук DUB, MVO) [ 13.88 GB ] Тринадцать привидений / Thir13en Ghosts [2001 BDRip 720p DUB лицензия] Ke$h@ Скачать
1 | 0
Фильмы 2001-2005 [ 1.46 GB ] Тринадцать привидений / Thir13en Ghosts [2001 BDRip + AVO + Оригинал ] PsYcho Скачать
1 | 0
Фильмы [HD 720p, 1080p] (Хороший звук DUB, MVO) [ 13.88 GB ] Тринадцать привидений / Thir13en Ghosts [2001 BDRip 1080p ] DUB + 4xMVO + 2xAVO + Original + Sub Ворон Скачать
2 | 0
Фильмы 2001-2005 [ 1.37 GB ] Тринадцать привидений / Thir13en Ghosts [2001 DVDRip] F.U. Скачать
1 | 0


Последний раз редактировалось: NarutoSasuke (2011-08-10 16:11), всего редактировалось 1 раз

28-11-2019 20:33  

Отключить всю рекламу на сайте

    Дорогой пользователь! Огромная просьба, поблагодарите релизера, оцените раздачу и оставьте свои комментарий, если Вы скачали Тринадцать привидений через торрент бесплатно! Внесите свою лепту в развитие PiratBit!
    Комментировать посты могут только пользователи прошедшие не сложную регистрацию
    Показать сообщения:    

    Тринадцать привидений через торрент
    Скачать бесплатно Тринадцать привидений
    Тринадцать привидений скачать торрент
    Тринадцать привидений смотреть онлайн
    Cкачать фильм Тринадцать привидений бесплатно
    Тринадцать привидений скачать торрент в хорошем качестве
    Тринадцать привидений смотреть онлайн бесплатно в хорошем качестве


    Вы не можете начинать темы
    Вы не можете отвечать на сообщения
    Вы не можете редактировать свои сообщения
    Вы не можете удалять свои сообщения
    Вы не можете голосовать в опросах
    Вы не можете прикреплять файлы к сообщениям
    Вы можете скачивать файлы