Ссылка на приватное зеркало нашего сайта всего за 1$. Внимание количество ограничено!!!

2 сезон

iTunes

1 сезон

1

2 сезон

2 сезон

iTunes

1 сезон

RePack

30

Новинка

ВАЖНО

ИГРА 18+

pack

RePack

MK11
pack

Забери бонус

RePack

jed

!!Акция!!

Alien_Rage

RePack

fifa19

RePack

Assassins Creed: Odyssey

RePack

NEED FOR SPEED™ PAYBACK

4 сезон

9 сезон

Бесстыжие 9 сезон

Все сериалы

все сериалы на PB.wtf

RePack

FAR CRY 5
  

Риццоли и Айлз / Rizzoli and Isles (2 сезон: 15 серий из (15) (Билл Хабер) [2011 г., драма, криминал, детектив, WEB-DLRip] (NewStudio.TV) pb.wtf

Риццоли и Айлз через торрент pb.wtf

Размер: 5.86 GB | Добавлен: 8 лет 10 мес. назад | Торрент скачан:5 раз
Скачать  

10-08-2011 14:52 Риццоли и Айлз Скачать торрент  

Риццоли и Айлз / Rizzoli and Isles
(2 сезон: 1-15 серии из (15)


Год выпуска: 2011
Выпущено: США, Warner Horizon Television
Жанр: драма, криминал, детектив
Продолжительность: ~ 00:43:00
Перевод: Многоголосый (закадровый) / NewStudio.TV /

Режиссер: Билл Хабер
Продюссер: Джоэль Филдс, Элизабет Бенжамин, Элисон Кросс
Сценарий: Тесс Герритсен, Джанет Тамаро, Джоэль Филдс

Кинопоиск: 7.80 (1 055)
IMDb: 7.823 217

В ролях: Энджи Хэрмон, Саша Александр, Лоррейн Бракко, Ли Томпсон Янг, Брюс МакГилл, Дженнифер Холлэнд, Джэйсон Блэр, Том Бауэр, Джордан Бриджес, Мариса Рамирез, Кристал Рид



Описание: Главная героиня сериала — Джейн Риццоли, бостонский детектив, которая вместе с патологоанатомом Морой Айлс, раскрывает преступления.

Качество: WEB-DLRip
Формат: AVI
Видео кодек: XviD
Аудио кодек: MP3
Видео: 624x352, 23,976 fps, XviD build 50, 1047 kbps avg, 0.20 bit/pixel
Аудио №1: 48.000 kHz, MPEG Layer 3, stereo, ~128.00 kbps [ru]
Аудио №2: 48.000 kHz, MPEG Layer 3, stereo, ~128.00 kbps [en]

Релиз от:

Над релизом работали:
Перевод и редакция: PtyZa
Озвучивание: Yul, Gutta, Caps
Работа со звуком: Baggio
Подготовка видео:Koss
при каждом добавлении создётся новый торрент. Чтобы начать докачку новой серии, пользователям необходимо сделать следующее:

(1) остановить скачивание,
(2) удалить старый торрент у себя из клиента (старые серии удалять не надо),
(3) скачать новый торрент и запустить его у себя в клиенте вместо старого, при этом указать клиенту путь в старую папку куда и должно происходить скачивание новых серий.

Ваш клиент при этом должен произвести хеширование (проверку) старой папки (если не производит сам - помогите ему сделать это), и будет докачивать только те серии которых у вас ещё нет. Старые серии при этом не удаляются, а продолжают раздаваться!

Eсли вы уже удалили старые серии, то предотвратить повторную закачку старых серий можно, отжав галочку в соответсвующих местах при запуске нового торрента. По возможности, желательно не удалять старые серии как можно дольше чтобы релизёр не столько продолжал раздавать старые серии, а смог сконцентрироваться на новых.
E:\ЗАГРУЗКА\Rizzoli.i.Ayls 2 сезон\Rizzoli.and.Isles.s02e01.WEBDLRip.NewStudio.TV.avi
General
Complete name : E:\ЗАГРУЗКА\Rizzoli.i.Ayls 2 сезон\Rizzoli.and.Isles.s02e01.WEBDLRip.NewStudio.TV.avi
Format : AVI
Format/Info : Audio Video Interleave
File size : 398 MiB
Duration : 42mn 15s
Overall bit rate : 1 319 Kbps
Writing application : VirtualDubMod 1.5.10.2 (build 2540/release)
Writing library : VirtualDubMod build 2540/release
Video #0
ID : 0
Format : MPEG-4 Visual
Format profile : Advanced Simple@L5
Format settings, BVOP : Yes
Format settings, QPel : No
Format settings, GMC : No warppoints
Format settings, Matrix : Default (MPEG)
Codec ID : XVID
Codec ID/Hint : XviD
Duration : 42mn 15s
Bit rate : 1 049 Kbps
Width : 624 pixels
Height : 352 pixels
Display aspect ratio : 16:9
Frame rate : 23.976 fps
Resolution : 8 bits
Colorimetry : 4:2:0
Scan type : Progressive
Bits/(Pixel*Frame) : 0.199
Stream size : 317 MiB (80%)
Writing library : XviD 64
Audio #1
ID : 1
Format : MPEG Audio
Format version : Version 1
Format profile : Layer 3
Format_Settings_Mode : Joint stereo
Format_Settings_ModeExtension : MS Stereo
Codec ID : 55
Codec ID/Hint : MP3
Duration : 42mn 15s
Bit rate mode : Constant
Bit rate : 128 Kbps
Channel(s) : 2 channels
Sampling rate : 48.0 KHz
Stream size : 38.7 MiB (10%)
Alignment : Aligned on interleaves
Interleave, duration : 42 ms (1.00 video frame)
Interleave, preload duration : 504 ms
Audio #2
ID : 2
Format : MPEG Audio
Format version : Version 1
Format profile : Layer 3
Format_Settings_Mode : Joint stereo
Format_Settings_ModeExtension : MS Stereo
Codec ID : 55
Codec ID/Hint : MP3
Duration : 42mn 15s
Bit rate mode : Constant
Bit rate : 128 Kbps
Channel(s) : 2 channels
Sampling rate : 48.0 KHz
Stream size : 38.7 MiB (10%)
Alignment : Aligned on interleaves
Interleave, duration : 42 ms (1.00 video frame)
Interleave, preload duration : 504 ms
01 серия: Другого героя нам не нужно (We Don't Need Another Hero)
02 серия: Живое доказательство (Living Proof)
03 серия: Морячок (Sailor Man)
04 серия: Кареглазая девочка (Brown Eyed Girl)
05 серия: (Rebel Without a Pause)
06 серия: Конфедераты без границ (Bloodlines)
07 серия: (Brown Eyed Girl)
08 серия: (My Own Worst Enemy)
09 серия: (Gone Daddy Gone)
10 серия: (Remember Me) Помни меня


Добавлена 15 серия. Полный сезон.pb.wtf



Скачать Риццоли и Айлз через торрент http://i29.fastpic.ru/big/2011/0910/56/a7dd33d15944681168ef8ed922ad6856.png Скачать фильм Риццоли и Айлз через торрент бесплантно в хорошем качестве Описание: Главная героиня сериала — Джейн Риццоли, бостонский детектив, которая вместе с патологоанатомом Морой Айлс, раскрывает ... 10 10 1
Info! Золотая раздача, скачанное не засчитывается.
Торрент: Зарегистрирован [2012-01-17 10:02] · скачан: 5 раз
Статус: √ проверено
Размер: 5.86 GB
Как cкачать? Как скачать Риццоли и Айлз через торрент | qTorrent

% Раздел Тема Автор DL S | L
Зарубежные сериалы [ 4.05 GB ] Риццоли и Айлз / Rizzoli and Isles [2010 WEBDLRip] lyokaa Скачать
1 | 0


Последний раз редактировалось: lyokaa (2012-01-17 10:03), всего редактировалось 20 раз(а)

28-11-2019 20:33  

Отключить всю рекламу на сайте

20-08-2011 12:52 Риццоли и Айлз Скачать торрент  

спасибоpb.wtf



10-09-2011 16:23 Риццоли и Айлз Скачать торрент  

Добавлен торрент с озвучкой NewStudio.TV.pb.wtf



17-01-2012 10:02 Риццоли и Айлз Скачать торрент  

Добавлена 15 серия. Полный сезон.pb.wtf



    Дорогой пользователь! Огромная просьба, поблагодарите релизера, оцените раздачу и оставьте свои комментарий, если Вы скачали Риццоли и Айлз через торрент бесплатно! Внесите свою лепту в развитие PiratBit!
    Комментировать посты могут только пользователи прошедшие не сложную регистрацию
    Показать сообщения:    

    Риццоли и Айлз через торрент
    Скачать бесплатно Риццоли и Айлз
    Риццоли и Айлз скачать торрент
    Риццоли и Айлз смотреть онлайн
    Cкачать фильм Риццоли и Айлз бесплатно
    Риццоли и Айлз скачать торрент в хорошем качестве
    Риццоли и Айлз смотреть онлайн бесплатно в хорошем качестве


    Вы не можете начинать темы
    Вы не можете отвечать на сообщения
    Вы не можете редактировать свои сообщения
    Вы не можете удалять свои сообщения
    Вы не можете голосовать в опросах
    Вы не можете прикреплять файлы к сообщениям
    Вы можете скачивать файлы