MEGA SALE -50% FORZA HORIZON 4 ULTIMATE+ВСЕ DLC+ОНЛАЙН всего за 599р. 299 руб. (супер цена). Внимание количество ограничено!!!

iTunes

1+1

iTunes

мы

iTunes

1

iTunes

Чернобыль

1 сезон

Ральф против интернета

Лицензия

ПШазам

Лицензия

Игра престолов

Лицензия

30
pack

ВАЖНО

!!Акция!!

Alien_RageХит недели

RePack

Resident Evil 21

ИГРА 18+

pack

RePack

Metro:Exodus

!!Акция!!

Alien_Rage

RePack

fifa19

RePack

Assassins Creed: Odyssey

RePack

NEED FOR SPEED™ PAYBACK

3 сезон

9 сезон

Бесстыжие 9 сезон

Все сериалы

все сериалы на PB.wtf

RePack

FAR CRY 5
Ребята, катастрофически не хватает 7730р. для оплаты серверов за ИЮЛЬ (всвязи с блокировками трафик упал в 3 раза), 1-2р., выручайте.
  

Господин Никто / Mr. Nobody (Жако Ван Дормель) [2009, Фантастика, фэнтези, драма, мелодрама, BDRip (720p)] pb.wtf

Господин Никто через торрент pb.wtf

Размер: 2.22 GB | Добавлен: 8 лет назад | Торрент скачан:2141 раз
Скачать  

10-08-2011 18:49 Господин Никто Скачать торрент  

Господин Никто / Mr. Nobody
«Всё возможно, пока не сделан выбор»



Год выпуска: 2009.
Страна: Германия, Канада, Франция, Бельгия
Жанр: Фантастика, фэнтези, драма, мелодрама.
Продолжительность: 02:35:34.
Перевод: Профессиональный (многоголосое)



Режиссер: Жако Ван Дормель.



Джаред Лето, Сара Полли, Дайан Крюгер, Лин Дэн Пэм, Рис Иванс, Наташа Литтл, Тоби Регбо, Джуно Темпл, Клер Стоун, Томас Бирн.



Описание: Проснувшийся немощным стариком Немо Никто оказывается последним смертным в гротескном будущем. Все люди уже давно бессмертны и с удовольствием наблюдают за телешоу, где главная звезда - дряхлый и безумный старик Немо, доживающий свои последние дни. Накануне конца к нему приходит журналист, и Немо рассказывает ему свою историю перескакивая из одной жизни в другую, параллельную, несколько раз за рассказ успев умереть...




Качество: BDrip.
Формат: MKV.
Видео кодек: AVC.
Аудио кодек: AC3.
Видео: 1280x546, 1592 Кбит/сек, 24,000 кадр/сек, AVC, x264, 2,35:1, 0.095 Бит/(Пиксели*Кадры).
Аудио: AC-3, 448 Кбит/сек, 6 канала(ов), 48,0 КГц.



скриншот  скриншот  скриншот  
Общее
Уникальный идентификатор : 210493417102116164938010429346761523963 (0x9E5B8EB8EE8C669DBA5A1A5B1BDDC2FB)
Полное имя : E:\Мои документы\Андрей\Downloads\Господин Никто.[NoLimits-Team].mkv
Формат : Matroska
Версия формата : Version 2
Размер файла : 2,22 Гбайт
Продолжительность : 2 ч. 35 м.
Общий поток : 2037 Кбит/сек
Название фильма : Rip by Tembr
Дата кодирования : UTC 2011-02-20 12:24:35
Программа кодирования : mkvmerge v3.2.0 ('Beginnings') built on Feb 12 2010 16:46:17
Библиотека кодирования : libebml v0.7.9 + libmatroska v0.8.1

Видео
Идентификатор : 1
Формат : AVC
Формат/Информация : Advanced Video Codec
Профиль формата : High@L4.1
Параметр CABAC формата : Да
Параметр ReFrames формата : 3 кадра
Идентификатор кодека : V_MPEG4/ISO/AVC
Продолжительность : 2 ч. 35 м.
Вид битрейта : Переменный
Битрейт : 1592 Кбит/сек
Максимальный битрейт : 17,5 Мбит/сек
Ширина : 1280 пикс.
Высота : 546 пикс.
Соотношение сторон : 2,35:1
Соотношение сторон в оригинале : 2,35:1
Частота кадров : 24,000 кадр/сек
Цветовое пространство : YUV
Подвыборка цветности : 4:2:0
Битовая глубина : 8 бит
Тип развёртки : Прогрессивная
Бит/(Пиксели*Кадры) : 0.095
Размер потока : 1,68 Гбайт (76%)
Заголовок : Господин Никто.[NoLimits-Team.ru]
Библиотека кодирования : x264 core 112 r1867 22bfd31
Настройки программы : cabac=1 / ref=1 / deblock=1:0:0 / analyse=0x3:0x3 / me=dia / subme=1 / psy=1 / psy_rd=0.00:0.00 / mixed_ref=0 / me_range=16 / chroma_me=1 / trellis=0 / 8x8dct=1 / cqm=0 / deadzone=21,11 / fast_pskip=1 / chroma_qp_offset=0 / threads=3 / sliced_threads=0 / slices=4 / nr=0 / decimate=1 / interlaced=0 / constrained_intra=0 / bframes=3 / b_pyramid=1 / b_adapt=1 / b_bias=0 / direct=1 / weightb=1 / open_gop=0 / weightp=1 / keyint=24 / keyint_min=1 / scenecut=40 / intra_refresh=0 / rc_lookahead=0 / rc=abr / mbtree=0 / bitrate=1592 / ratetol=1.0 / qcomp=0.60 / qpmin=0 / qpmax=51 / qpstep=4 / vbv_maxrate=17500 / vbv_bufsize=14500 / nal_hrd=vbr / ip_ratio=1.10 / pb_ratio=1.10 / aq=1:1.00
Язык : English

Аудио
Идентификатор : 2
Формат : AC-3
Формат/Информация : Audio Coding 3
Расширение режима : CM (complete main)
Идентификатор кодека : A_AC3
Продолжительность : 2 ч. 35 м.
Вид битрейта : Постоянный
Битрейт : 448 Кбит/сек
Каналы : 6 каналов
Расположение каналов : Front: L C R, Side: L R, LFE
Частота : 48,0 КГц
Битовая глубина : 16 бит
Метод сжатия : С потерями
Размер потока : 499 Мбайт (22%)
Заголовок : Профессиональное (многоголосое)
Язык : Russian
pb.wtf



Скачать Господин Никто через торрент http://i15.fastpic.ru/big/2011/0220/aa/69de704f40ec81ffa3291c7c3c8191aa.png Скачать фильм Господин Никто через торрент бесплантно в хорошем качестве Описание: Проснувшийся немощным стариком Немо Никто оказывается последним смертным в гротескном будущем. Все люди уже давно бессмертны и с ... 9.9 10 14
Info! Золотая раздача, скачанное не засчитывается.
Торрент: Зарегистрирован [2011-08-10 18:49] · скачан: 2 141 раз
Статус: √ проверено
Размер: 2.22 GB
Как cкачать? Как скачать Господин Никто через торрент | qTorrent

% Раздел Тема Автор DL S | L
Фильмы 2009 [ 1.37 GB ] Господин Никто / Mr. Nobody [2009 HDRip] aleksander2009 Скачать
1 | 0
Фильмы [HD 720p, 1080p] (Хороший звук DUB, MVO) [ 6.37 GB ] Господин Никто / Mr. Nobody [2009 BDRip 720p] [EXTENDED] MVO [] potroks Скачать
1 | 0
Фильмы [HD 720p, 1080p] (Хороший звук DUB, MVO) [ 9.67 GB ] Господин Никто / Mr. Nobody [Extended cut] [2009 Бельгия Германия BDRip 720p] Многоголосый закадровый + Original + Subs от R.G. PiratFilms Messa-fan Скачать
1 | 0
Фильмы 2009 [ 1.47 GB ] Господин Никто / Mr. Nobody [2009 DVDRip лицензия] Чупачупсик Скачать
1 | 0
Видео (iPhone, iPod Touch) [ 1.73 GB ] Господин Никто / Mr. Nobody [2009 Мело BDRip] ELEMENT Скачать
1 | 0
Фильмы [HD 720p, 1080p] (Хороший звук DUB, MVO) [ 7.37 GB ] Господин Никто / Мистер Никто / Mr. Nobody [2009 BDRip 720p] .::Sergey::. Скачать
1 | 0
Фильмы 2009 [ 2.05 GB ] Господин Никто / Mr. Nobody [2009 HDRip [Extended] лицензия] Lil Badun Скачать
1 | 0


>> Регистрируемся здесь <<






Отзывы и комментарии о схеме читаем и пишем здесь: ---> Отзывы и комментарии о схеме

Новые благодарочки в телеграм довольных пользователей:
скриншот   скриншот   скриншот   скриншот   скриншот

31-08-2015 12:38 Господин Никто Скачать торрент  

по ссылке на кинопоиск открывается крик 4 sarcasticpb.wtf



    Дорогой пользователь! Огромная просьба, поблагодарите релизера, оцените раздачу и оставьте свои комментарий, если Вы скачали Господин Никто через торрент бесплатно! Внесите свою лепту в развитие PiratBit!
    Комментировать посты могут только пользователи прошедшие не сложную регистрацию
    Показать сообщения:    

    Господин Никто через торрент
    Скачать бесплатно Господин Никто
    Господин Никто скачать торрент
    Господин Никто смотреть онлайн
    Cкачать фильм Господин Никто бесплатно
    Господин Никто скачать торрент в хорошем качестве
    Господин Никто смотреть онлайн бесплатно в хорошем качестве


    Вы не можете начинать темы
    Вы не можете отвечать на сообщения
    Вы не можете редактировать свои сообщения
    Вы не можете удалять свои сообщения
    Вы не можете голосовать в опросах
    Вы не можете прикреплять файлы к сообщениям
    Вы можете скачивать файлы