1 сезон

3 сезон

iTunes

1

Line

MVO

iTunes

13

1 сезон

RePack

30

Deluxe

pack

Лицензия

ВАЖНО

ИГРА 18+

pack

RePack

MK11

RePack

jed

RePack

fifa19

RePack

RDR2

RePack

NEED FOR SPEED™ PAYBACK

4 сезон

9 сезон

Бесстыжие 9 сезон

Все сериалы

все сериалы на PB.wtf

RePack

FAR CRY 5

Anonymous, доброе утро, мы катастрофически не успеваем собрать деньги на оплату серверов, помогите нам пожалуйста 5,10,15р., для нас важна любая помощь . В качестве благодарности мы отключим Вам всю рекламу на сайте (укажите свой ник в строку Ваше имя)!

×
  
Magnet ссылка

Карантин 2: Терминал / Quarantine 2: Terminal (Джон Пог / John Pogue) [2011, США, ужасы, фантастика, триллер, детектив, DVD9] R5 «Columbia/Sonpb.wtf

Карантин 2: Терминал через торрент pb.wtf

Размер: 4.4 GB | Добавлен: 9 лет назад | Торрент скачан:70 раз
Скачать  

10-08-2011 20:56 Карантин 2: Терминал Скачать торрент  


Карантин 2: Терминал / Quarantine 2: Terminal
Страна: США
Студия: RCR Media Group, Third Street Pictures
Жанр: ужасы, фантастика, триллер, детектив
Год выпуска: 2011
Мировая премьера: 27 января 2011
Дата выхода DVD: 9 августа 2011, «Columbia/Sony»
Продолжительность: 01:22:46
Перевод: Профессиональный (многоголосый закадровый) [Лицензия]
Cубтитры: английские, польские, арабские, греческие, хинди, исландские, португальские, турецкие, украинские
Оригинальная аудиодорожка: английский
Режиссер: Джон Пог / John Pogue
В ролях: Джордж Бэк, Эндрю Бенатор, Джейсон Бенжамин, Бри Блэр, Линн Коул, Джош Кук, Майкл Ковингтон, Джон Каррен, Филлип ДеВона, Джули Перез
Описание: После того, как один из пассажиров самолета выказал признаки необъяснимого заболевания сопровождающегося безумным поведением, самолет совершил вынужденную посадку. Сойдя с трапа пассажиры рейса обнаруживают себя в карантинной зоне, в которую превратили терминал прибытия городские службы. И не зря, надо сказать, превратили, так как один за другим подобной заразой заболевают другие пассажиры...

Бонусы: Нет

Релиз группы:
Качество: DVD9 R5
Формат: DVD-Video
Видео кодек: MPEG2
Аудио кодек: AC3
Видео: PAL 16:9 (720x576(0.568)) MPEG Video, 25,000 кадр/сек, 5887 Кбит/сек
Аудио #1: English (Dolby AC3, 6 ch) 448 Кбит/сек, 48,0 КГц
Аудио #2: Russian (Dolby AC3, 6 ch) 448 Кбит/сек, 48,0 КГц
Аудио #3: Polish (Dolby AC3, 6 ch) 448 Кбит/сек, 48,0 КГц



Title:
Size: 4.40 Gb ( 4 613 954 KBytes ) - DVD-9
Enabled regions: 1, 2, 3, 4, 5, 6, 7, 8

VTS_01 :
Play Length: 01:22:46
Video: PAL 16:9 (720x576) VBR, Auto Pan&Scan
Audio:
English (Dolby AC3, 6 ch)
Russian (Dolby AC3, 6 ch)
Polish (Dolby AC3, 6 ch)
Subtitles:
English
Russian
Polish
Arabic
Greek
Hindi
Islenska
Portugues
Turkish
Ukrainian
VTS_02 :
Play Length: 00:00:14
Video: PAL 16:9 (720x576) VBR, Auto Letterboxed
Audio:
English (Dolby AC3, 6 ch)

VTS_03 :
Play Length: 00:00:10
Video: PAL 16:9 (720x576) VBR, Auto Pan&Scan

VTS_04 :
Play Length: 00:00:08
Video: PAL 16:9 (720x576) VBR, Auto Pan&Scan

VTS_05 :
Play Length: 00:00:10
Video: PAL 4:3 (720x576) VBR
Audio:
English (Dolby AC3, 6 ch)
Subtitles:
Russian
Polish
Arabic
Greek
Hindi
Islenska
Portugues
Turkish
Общее
Полное имя : G:\Новинки 2011\Karantin.2.Terminal.2011.DVD9\VIDEO_TS\VTS_01_1.VOB
Формат : MPEG-PS
Размер файла : 1024 Мбайт
Продолжительность : 19 м.
Общий поток : 7377 Кбит/сек

Видео
Идентификатор : 224 (0xE0)
Формат : MPEG Video
Версия формата : Version 2
Профиль формата : Main@Main
Параметр BVOP формата : Да
Параметр матрицы формата : Выборочная
Продолжительность : 19 м.
Вид битрейта : Переменный
Битрейт : 5887 Кбит/сек
Номинальный битрейт : 9800 Кбит/сек
Ширина : 720 пикс.
Высота : 576 пикс.
Соотношение сторон : 16:9
Частота кадров : 25,000 кадр/сек
Стандарт вещания : PAL
Цветовое пространство : YUV
Подвыборка цветности : 4:2:0
Битовая глубина : 8 бит
Тип развёртки : Чересстрочная
Порядок развёртки : Верхнее поле первое
Метод сжатия : С потерями
Бит/(Пиксели*Кадры) : 0.568
Размер потока : 817 Мбайт (80%)

Аудио #1
Идентификатор : 189 (0xBD)-128 (0x80)
Формат : AC-3
Формат/Информация : Audio Coding 3
Расширение режима : CM (complete main)
Режим смешивания : DVD-Video
Продолжительность : 19 м.
Вид битрейта : Постоянный
Битрейт : 448 Кбит/сек
Каналы : 6 каналов
Расположение каналов : Front: L C R, Side: L R, LFE
Частота : 48,0 КГц
Битовая глубина : 16 бит
Метод сжатия : С потерями
Размер потока : 62,2 Мбайт (6%)

Аудио #2
Идентификатор : 189 (0xBD)-129 (0x81)
Формат : AC-3
Формат/Информация : Audio Coding 3
Расширение режима : CM (complete main)
Режим смешивания : DVD-Video
Продолжительность : 19 м.
Вид битрейта : Постоянный
Битрейт : 448 Кбит/сек
Каналы : 6 каналов
Расположение каналов : Front: L C R, Side: L R, LFE
Частота : 48,0 КГц
Битовая глубина : 16 бит
Метод сжатия : С потерями
Размер потока : 62,2 Мбайт (6%)

Аудио #3
Идентификатор : 189 (0xBD)-130 (0x82)
Формат : AC-3
Формат/Информация : Audio Coding 3
Расширение режима : CM (complete main)
Режим смешивания : DVD-Video
Продолжительность : 19 м.
Вид битрейта : Постоянный
Битрейт : 448 Кбит/сек
Каналы : 6 каналов
Расположение каналов : Front: L C R, Side: L R, LFE
Частота : 48,0 КГц
Битовая глубина : 16 бит
Метод сжатия : С потерями
Размер потока : 62,2 Мбайт (6%)










pb.wtf



Скачать Карантин 2: Терминал через торрент http://i3.imageban.ru/out/2011/08/10/81e6e55ca3c7094d04c733375053b9ce.jpg Скачать фильм Карантин 2: Терминал через торрент бесплантно в хорошем качестве Описание: После того, как один из пассажиров самолета выказал признаки необъяснимого заболевания сопровождающегося безумным поведением, ... 4.3 10 6
Info! Золотая раздача, скачанное не засчитывается.
Торрент: Зарегистрирован [2011-08-10 20:56] · скачан: 70 раз
Статус: √ проверено
Размер: 4.4 GB
Как cкачать? Как скачать Карантин 2: Терминал через торрент | UTorrent

28-11-2019 20:33  

Отключить всю рекламу на сайте


11-08-2011 08:02 Карантин 2: Терминал Скачать торрент  

не теряйте время
фильм снят за 1000$pb.wtf



    Дорогой пользователь! Огромная просьба, поблагодарите релизера, оцените раздачу и оставьте свои комментарий, если Вы скачали Карантин 2: Терминал через торрент бесплатно! Внесите свою лепту в развитие PiratBit!
    Комментировать посты могут только пользователи прошедшие не сложную регистрацию
    Показать сообщения:    

    Карантин 2: Терминал через торрент
    Скачать бесплатно Карантин 2: Терминал
    Карантин 2: Терминал скачать торрент
    Карантин 2: Терминал смотреть онлайн
    Cкачать фильм Карантин 2: Терминал бесплатно
    Карантин 2: Терминал скачать торрент в хорошем качестве
    Карантин 2: Терминал смотреть онлайн бесплатно в хорошем качестве


    Вы не можете начинать темы
    Вы не можете отвечать на сообщения
    Вы не можете редактировать свои сообщения
    Вы не можете удалять свои сообщения
    Вы не можете голосовать в опросах
    Вы не можете прикреплять файлы к сообщениям
    Вы можете скачивать файлы