1 сезон

3 сезон

iTunes

1

Line

MVO

iTunes

13

1 сезон

RePack

30

Deluxe

pack

Лицензия

ВАЖНО

ИГРА 18+

pack

RePack

MK11

RePack

jed

RePack

fifa19

RePack

RDR2

RePack

NEED FOR SPEED™ PAYBACK

4 сезон

9 сезон

Бесстыжие 9 сезон

Все сериалы

все сериалы на PB.wtf

RePack

FAR CRY 5

Anonymous, добрый вечер, мы катастрофически не успеваем собрать деньги на оплату серверов, помогите нам пожалуйста 5,10,15р., для нас важна любая помощь . В качестве благодарности мы отключим Вам всю рекламу на сайте (укажите свой ник в строку Ваше имя)!

×
  
Magnet ссылка

Добыча / Prowl (Патрик Сиверсен) [2010, ужасы, DVD5] pb.wtf

Добыча через торрент pb.wtf

Размер: 3.69 GB | Добавлен: 9 лет назад | Торрент скачан:24 раза
Скачать  

11-08-2011 07:29 Добыча Скачать торрент  

Добыча / Prowl «Когда бегство от прошлого превращается в борьбу за жизнь»


Год выпуска: 2010
Страна: США
Жанр: ужасы
Продолжительность: 01:21:00
Перевод: Профессиональный (многоголосый, закадровый)
Субтитры: Украинские


Режиссер: Патрик Сиверсен
Продюссер: Закари Ти Брайан, Кристофер Д’Илайа, Майкл Клейн
Сценарий: Тим Тори


Премьера в мире: 4 сентября 2010


В ролях: Брюс Пэйн, Рута Гедминтас, Джошуа Боуман, Пердита Викс, Джэми Блэкли, Кортни Хоуп, Саксон Трейнор, Оливер Хоуз, Майкл Джонсон, Атанас Сребрев



Эмбер мечтает уехать из своего маленького городка. Вместе со своими друзьями она отправляется в большой город. Но по дороге их машина ломается. Молодежь принимает помощь встретившегося на дороге водителя, продолжив путешествие в фуре грузовика. Но внезапно они обнаруживают, что грузом их нового знакомого являются… коробки с человеческими останками! Выбраться из фуры они не могут, а шофер и не собирается их выпускать до пункта назначения. А там вся компания оказывается запертой в огромном цеху давно заброшенного завода, который населяют зомби, изголодавшиеся по человеческой плоти…




Качество: DVD5
Формат: DVD Video
Видео кодек: MPEG2
Аудио кодек: AC3
Видео: 720x576 (PAL 16:9 ), MPEG 2 Video, 25,000 fps, ~8000 kbps avg
Аудио: Русский 48 kHz, Dolby AC3, 6 ch, ~384 kbps avg [Профессиональный (многоголосый, закадровый)]

[Лицензионное издание, «Новый Диск», PAL 16:9]
Meню озвученное, статичное на русском языке, с навигацией по эпизодам.
Общее
Полное имя : D:\торенты\1\Добыча\VIDEO_TS\VTS_03_1.VOB
Формат : MPEG-PS
Размер файла : 1024 Мбайт
Продолжительность : 22 м.
Общий поток : 6501 Кбит/сек

Видео
Идентификатор : 224 (0xE0)
Формат : MPEG Video
Версия формата : Version 2
Профиль формата : Main@Main
Параметр BVOP формата : Да
Параметр матрицы формата : По умолчанию
Параметры GOP формата : M=3, N=15
Продолжительность : 22 м.
Вид битрейта : Переменный
Битрейт : 5988 Кбит/сек
Максимальный битрейт : 8000 Кбит/сек
Ширина : 720 пикс.
Высота : 576 пикс.
Соотношение сторон : 16:9
Частота кадров : 25,000 кадр/сек
Стандарт вещания : PAL
Цветовое пространство : YUV
Подвыборка цветности : 4:2:0
Битовая глубина : 8 бит
Тип развёртки : Прогрессивная
Метод сжатия : С потерями
Бит/(Пиксели*Кадры) : 0.578
Размер потока : 943 Мбайт (92%)

Аудио
Идентификатор : 189 (0xBD)-128 (0x80)
Формат : AC-3
Формат/Информация : Audio Coding 3
Расширение режима : CM (complete main)
Режим смешивания : DVD-Video
Продолжительность : 22 м.
Вид битрейта : Постоянный
Битрейт : 384 Кбит/сек
Каналы : 6 каналов
Расположение каналов : Front: L C R, Side: L R, LFE
Частота : 48,0 КГц
Битовая глубина : 16 бит
Метод сжатия : С потерями
Задержка видео : -80 мс.
Размер потока : 60,5 Мбайт (6%)

Текст
Идентификатор : 189 (0xBD)-32 (0x20)
Формат : RLE
Формат/Информация : Run-length encoding
Режим смешивания : DVD-Video
скриншот  скриншот  скриншот  
скриншот  скриншот  скриншот  скриншот  скриншот  pb.wtf



Скачать Добыча через торрент http://i18.fastpic.ru/big/2011/0811/06/fb275dd3a837fe1027606ea5e12d3606.jpg Скачать фильм Добыча через торрент бесплантно в хорошем качестве В ролях: Брюс Пэйн, Рута Гедминтас, Джошуа Боуман, Пердита Викс, Джэми Блэкли, Кортни Хоуп, Саксон Трейнор, Оливер Хоуз, Майкл Джонсон, ... 4.3 10 3
Info! Золотая раздача, скачанное не засчитывается.
Торрент: Зарегистрирован [2011-08-11 07:29] · скачан: 24 раз
Статус: √ проверено
Размер: 3.69 GB
Как cкачать? Как скачать Добыча через торрент | UTorrent

% Раздел Тема Автор DL S | L
Фильмы 2011 [ 1.48 GB ] Добыча / Prowl [2010 HDRip лицензия] SD Скачать
1 | 0

28-11-2019 20:33  

Отключить всю рекламу на сайте

    Дорогой пользователь! Огромная просьба, поблагодарите релизера, оцените раздачу и оставьте свои комментарий, если Вы скачали Добыча через торрент бесплатно! Внесите свою лепту в развитие PiratBit!
    Комментировать посты могут только пользователи прошедшие не сложную регистрацию
    Показать сообщения:    

    Добыча через торрент
    Скачать бесплатно Добыча
    Добыча скачать торрент
    Добыча смотреть онлайн
    Cкачать фильм Добыча бесплатно
    Добыча скачать торрент в хорошем качестве
    Добыча смотреть онлайн бесплатно в хорошем качестве


    Вы не можете начинать темы
    Вы не можете отвечать на сообщения
    Вы не можете редактировать свои сообщения
    Вы не можете удалять свои сообщения
    Вы не можете голосовать в опросах
    Вы не можете прикреплять файлы к сообщениям
    Вы можете скачивать файлы