1 сезон

3 сезон

iTunes

1

Line

MVO

iTunes

13

1 сезон

RePack

30

Deluxe

pack

Лицензия

ВАЖНО

ИГРА 18+

pack

RePack

MK11

RePack

jed

RePack

fifa19

RePack

RDR2

RePack

NEED FOR SPEED™ PAYBACK

4 сезон

9 сезон

Бесстыжие 9 сезон

Все сериалы

все сериалы на PB.wtf

RePack

FAR CRY 5

Anonymous, добрый вечер, мы катастрофически не успеваем собрать деньги на оплату серверов, помогите нам пожалуйста 5,10,15р., для нас важна любая помощь . В качестве благодарности мы отключим Вам всю рекламу на сайте (укажите свой ник в строку Ваше имя)!

×
  
Magnet ссылка

Синдбад и Минотавр / Sinbad and the Minotaur (Карл Цвики / Karl Zwicky) [2011, фантастика, фэнтези, приключения, DVD9] R5 «Вольга» pb.wtf

Синдбад и Минотавр через торрент pb.wtf

Размер: 5.78 GB | Добавлен: 9 лет назад | Торрент скачан:83 раза
Скачать  

12-08-2011 09:18 Синдбад и Минотавр Скачать торрент  


Синдбад и Минотавр / Sinbad and the Minotaur
Страна: Австралия
Студия: Limelight International Media Entertainment
Жанр: фантастика, фэнтези, приключения
Год выпуска: 2011
Мировая премьера: 21 мая 2011
Дата выхода DVD: 11 августа 2011, «Вольга»
Продолжительность: 01:28:32
Перевод: Профессиональный (многоголосый закадровый) [Лицензия]
Cубтитры: нет
Оригинальная аудиодорожка: английский
Режиссер: Карл Цвики / Karl Zwicky
В ролях: Ману Беннетт, Холлы Брислей, Лилли Браун, Димитрий Бавеас, Стивен Грайвз, Брэд МакМюррей, Джаред Робинсон, Пачаро Мзембе, Терри Антоняк
Описание: Синдбад, наслышанный о древнем золоте, тайком пробирается в пустыню, в лагерь колдуна Аль-Жибара. Среди многих реликвий он находит сундук из слоновой кости, в котором спрятан журнал капитана пиратов Миноса. Он и должен привести Синдбада к золотой голове Колосса Родосского.
Бонусы: нет

Релиз группы:
Качество: DVD9 R5
Формат: DVD-Video
Видео кодек: MPEG2
Аудио кодек: AC3
Видео: PAL 16:9 (720x576(0.768)) MPEG Video, 25,000 кадр/сек, 7964 Кбит/сек
Аудио #1: Russian (Dolby AC3, 6 ch) 256 Кбит/сек, 48,0 КГц
Аудио #2: English (Dolby AC3, 6 ch) 256 Кбит/сек, 48,0 КГц



Title:
Size: 5.79 Gb ( 6 066 048 KBytes ) - DVD-9
Enabled regions: 1, 2, 3, 4, 5, 6, 7, 8

VTS_01 :
Play Length: 00:00:10
Video: PAL 16:9 (720x576) VBR, Auto Pan&Scan, Auto Letterboxed

VTS_02 :
Play Length: 00:00:06
Video: PAL 16:9 (720x576) VBR, Auto Pan&Scan, Auto Letterboxed

VTS_03 :
Play Length: 01:28:32
Video: PAL 16:9 (720x576) VBR, Auto Pan&Scan, Auto Letterboxed
Audio:
Not specified (Dolby AC3, 6 ch)
Not specified (Dolby AC3, 6 ch)
Общее
Полное имя : G:\Новинки 2011\Sindbad.i.minotavr.2011.DVD9\VIDEO_TS\VTS_03_1.VOB
Формат : MPEG-PS
Размер файла : 1024 Мбайт
Продолжительность : 16 м.
Общий поток : 8648 Кбит/сек

Видео
Идентификатор : 224 (0xE0)
Формат : MPEG Video
Версия формата : Version 2
Профиль формата : Main@Main
Параметр BVOP формата : Да
Параметр матрицы формата : Выборочная
Параметры GOP формата : M=3, N=15
Продолжительность : 16 м.
Вид битрейта : Переменный
Битрейт : 7964 Кбит/сек
Номинальный битрейт : 9000 Кбит/сек
Ширина : 720 пикс.
Высота : 576 пикс.
Соотношение сторон : 16:9
Частота кадров : 25,000 кадр/сек
Стандарт вещания : PAL
Цветовое пространство : YUV
Подвыборка цветности : 4:2:0
Битовая глубина : 8 бит
Тип развёртки : Чересстрочная
Порядок развёртки : Верхнее поле первое
Метод сжатия : С потерями
Бит/(Пиксели*Кадры) : 0.768
Размер потока : 943 Мбайт (92%)

Аудио #1
Идентификатор : 189 (0xBD)-128 (0x80)
Формат : AC-3
Формат/Информация : Audio Coding 3
Расширение режима : CM (complete main)
Режим смешивания : DVD-Video
Продолжительность : 16 м.
Вид битрейта : Постоянный
Битрейт : 256 Кбит/сек
Каналы : 6 каналов
Расположение каналов : Front: L C R, Side: L R, LFE
Частота : 48,0 КГц
Битовая глубина : 16 бит
Метод сжатия : С потерями
Размер потока : 30,3 Мбайт (3%)

Аудио #2
Идентификатор : 189 (0xBD)-129 (0x81)
Формат : AC-3
Формат/Информация : Audio Coding 3
Расширение режима : CM (complete main)
Режим смешивания : DVD-Video
Продолжительность : 16 м.
Вид битрейта : Постоянный
Битрейт : 256 Кбит/сек
Каналы : 6 каналов
Расположение каналов : Front: L C R, Side: L R, LFE
Частота : 48,0 КГц
Битовая глубина : 16 бит
Метод сжатия : С потерями
Размер потока : 30,3 Мбайт (3%)










pb.wtf



Скачать Синдбад и Минотавр через торрент http://i2.imageban.ru/out/2011/08/12/bab9c01925c949adda5ed2f0fed96358.jpg Скачать фильм Синдбад и Минотавр через торрент бесплантно в хорошем качестве Описание: Синдбад, наслышанный о древнем золоте, тайком пробирается в пустыню, в лагерь колдуна Аль-Жибара. Среди многих реликвий он ... 4.8 10 13
Info! Золотая раздача, скачанное не засчитывается.
Торрент: Зарегистрирован [2011-08-12 09:18] · скачан: 83 раз
Статус: √ проверено
Размер: 5.78 GB
Как cкачать? Как скачать Синдбад и Минотавр через торрент | UTorrent



Последний раз редактировалось: voovaz (2011-08-12 18:47), всего редактировалось 1 раз

28-11-2019 20:33  

Отключить всю рекламу на сайте

12-08-2011 09:54 Синдбад и Минотавр Скачать торрент  

АХАХАХ Режиссер года попутал . Фильм еще 6 лет назад можно было бы посмотреть .pb.wtf



12-08-2011 13:45 Синдбад и Минотавр Скачать торрент  

[2011, Австралия, фантастика, фэнтези, приключения, DVD9] R5
в шапке страну вроде как не пишем
исправьpb.wtf



14-08-2011 11:51 Синдбад и Минотавр Скачать торрент  

спасибо, за фильмpb.wtf



14-08-2011 11:51 Синдбад и Минотавр Скачать торрент  

Фуфел,дишовый. :doubledown: :doubledown: :doubledown: javascript:emoticon(':doubledown:') :doubledown: :doubledown: :doubledown: :doubledown: :doubledown:pb.wtf



    Дорогой пользователь! Огромная просьба, поблагодарите релизера, оцените раздачу и оставьте свои комментарий, если Вы скачали Синдбад и Минотавр через торрент бесплатно! Внесите свою лепту в развитие PiratBit!
    Комментировать посты могут только пользователи прошедшие не сложную регистрацию
    Показать сообщения:    

    Синдбад и Минотавр через торрент
    Скачать бесплатно Синдбад и Минотавр
    Синдбад и Минотавр скачать торрент
    Синдбад и Минотавр смотреть онлайн
    Cкачать фильм Синдбад и Минотавр бесплатно
    Синдбад и Минотавр скачать торрент в хорошем качестве
    Синдбад и Минотавр смотреть онлайн бесплатно в хорошем качестве


    Вы не можете начинать темы
    Вы не можете отвечать на сообщения
    Вы не можете редактировать свои сообщения
    Вы не можете удалять свои сообщения
    Вы не можете голосовать в опросах
    Вы не можете прикреплять файлы к сообщениям
    Вы можете скачивать файлы