Доктор Стрэндж

Лицензия

Добыча

Дубляж

Уэнсдэй

1 сезон

Тор

Дубляж

В эфире

Дубляж

Там, где раки поют

MVO

Властелин колец

1 сезон

Deluxe

pack

Рекомендуем

30

Пиратка

ВАЖНО

ВАЖНО

Ghostwire

Пиратка

jed

RePack

nioh2

RePack

RDR2

RePack

NEED FOR SPEED™ PAYBACK

RePack

скачать торрент

Кинопоиск HD

Острые козырьки 6 сезон

6 сезон

FAR CRY 6

RePack

скачать торрент

Лицензия

скачать торрент

MVO

1

1 сезон

скачать торрент

1 сезон

скачать торрент

Лицензия

  

Легенды ночных стражей 3Д / Legend of the Guardians: The Owls of Ga’Hoole 3D (Зак Снайдер) [2010 г., фэнтези, приключения, мультфильм, HDRip] Anaglyph, red'cyan

Легенды ночных стражей 3Д через торрент pb.wtf

Размер: 1.47 GB | Добавлен: 11 лет назад | Торрент скачан:291 раз
| Скачать   

13-08-2011 11:00 Легенды ночных стражей 3Д Скачать торрент  

Легенды ночных стражей 3Д / Legend of the Guardians: The Owls of Ga’Hoole 3D

Год выпуска: 2010
Страна: США
Жанр: фэнтези, приключения, мультфильм
Продолжительность: 1 ч. 36 м.
Перевод: Профессиональный (полное дублирование) [Лицензия]

Режиссер: Зак Снайдер

В ролях: Джим Стерджесс, Джоэл Эдгертон, Хьюго Уивинг, Эдриэнн ДеФариа, Ричард Роксбург, Дэвид Уэнэм, Хелен Миррен, Мириам Марголис, Сэм Нил, Джеффри Раш

Описание: Миром, в котором уже не осталось людей, правят совы… добрые… злые… как и всегда! В волшебном лесу - королевстве сов Тито - на Великом Дереве Га`Хуул, где разумные совы живут в гармонии, наступают мрачные времена. Королевство подвергается страшной опасности со стороны соседних жестоких правителей, и эта опасность грозит уничтожить привычное мироздание.

Доп. информация: Anaglyph, red'cyan

Качество: HDRip
Формат: AVI
Видео кодек: XviD
Аудио кодек: MP3
Видео: 1975 Кбит/сек, 1280x720, (16:9),25,000 кадр/сек
Аудио: MP3 192 Кбит/сек, 48,0 КГц , 2 канала ,
[Общее
Полное имя : Легенды ночных стражей.3D.2010.HDRip.avi
Формат : AVI
Формат/Информация : Audio Video Interleave
Размер файла : 1,47 Гбайт
Продолжительность : 1 ч. 36 м.
Общий поток : 2180 Кбит/сек

Видео
Идентификатор : 0
Формат : MPEG-4 Visual
Профиль формата : [email protected]
Параметр BVOP формата : Нет
Параметр QPel формата : Нет
Параметр GMC формата : Без точки перехода
Параметр матрицы формата : Default (H.263)
Идентификатор кодека : XVID
Идентификатор кодека/Подсказка : XviD
Продолжительность : 1 ч. 36 м.
Битрейт : 1975 Кбит/сек
Ширина : 1280 пикс.
Высота : 720 пикс.
Соотношение сторон : 16:9
Частота кадров : 25,000 кадр/сек
Цветовое пространство : YUV
Подвыборка цветности : 4:2:0
Битовая глубина : 8 бит
Тип развёртки : Прогрессивная
Метод сжатия : С потерями
Бит/(Пиксели*Кадры) : 0.086
Размер потока : 1,33 Гбайт (91%)
Библиотека кодирования : XviD 1.2.1 (UTC 2008-12-04)

Аудио
Идентификатор : 1
Формат : MPEG Audio
Версия формата : Version 1
Профиль формата : Layer 3
Идентификатор кодека : 55
Идентификатор кодека/Подсказка : MP3
Продолжительность : 1 ч. 36 м.
Вид битрейта : Постоянный
Битрейт : 192 Кбит/сек
Каналы : 2 канала
Частота : 48,0 КГц
Метод сжатия : С потерями
Размер потока : 133 Мбайт (9%)
Выравнивание : Разделение по промежуткам
Продолжительность промежутка : 24 мс. (0,60 видеокадр)]






Скачать Легенды ночных стражей 3Д через торрент http://i26.fastpic.ru/big/2011/0813/9a/753549be39483f573313082e83d1fe9a.jpg Скачать, смотреть онлайн Легенды ночных стражей 3Д бесплантно в хорошем качестве Описание: Миром, в котором уже не осталось людей, правят совы… добрые… злые… как и всегда! В волшебном лесу - королевстве сов Тито - на ... 10 10 5
Info! Золотая раздача, скачанное не засчитывается.
Торрент: Зарегистрирован [2011-08-13 11:00] · скачан: 291 раз
Статус: √ проверено
Размер: 1.47 GB
Как cкачать? Как скачать Легенды ночных стражей 3Д через торрент | UTorrent

28-11-2019 20:33  


Отключить вcю реклaмy на сайте, в т.ч. и в плеере онлайн просмотра!

    Дорогой пользователь! Огромная просьба, поблагодарите релизера, оцените раздачу и оставьте свои комментарий, если Вы скачали Легенды ночных стражей 3Д через торрент бесплатно!!
    Комментировать посты могут только пользователи прошедшие не сложную регистрацию
    Показать сообщения:    


    Легенды ночных стражей 3Д через торрент
    Скачать бесплатно Легенды ночных стражей 3Д
    Легенды ночных стражей 3Д скачать торрент
    Легенды ночных стражей 3Д смотреть онлайн
    Cкачать фильм Легенды ночных стражей 3Д бесплатно
    Легенды ночных стражей 3Д скачать торрент в хорошем качестве
    Легенды ночных стражей 3Д смотреть онлайн бесплатно в хорошем качестве
    Вы не можете начинать темы
    Вы не можете отвечать на сообщения
    Вы не можете редактировать свои сообщения
    Вы не можете удалять свои сообщения
    Вы не можете голосовать в опросах
    Вы не можете прикреплять файлы к сообщениям
    Вы можете скачивать файлы
    Легенды ночных стражей 3Д / Legend of the Guardians: The Owls of Ga’Hoole 3D [2010 г., фэнтези, приключения, мультфильм, HDRip] Anaglyph, red'cyan смотреть онлайн, скачать торрент picoco.icu