Anonymous, добрый вечер, присоединяйтесь к нам в Telegram!, здесь всегда актуальный адрес сайта, оперативная поддержка и многое другое!

>

5.6

iTunes

7.4

iTunes

7.9

MVO

1

7.7

1 сезон

6.8

iTunes

7.3

1 сезон

13

6.7

1 сезон

8.3

RePack

30

ULTIMATE

pack

9.9

Лицензия

ВАЖНО

ИГРА 18+

pack

7.3

RePack

MK11

7.7

RePack

jed

7.8

RePack

fifa19

8.5

RePack

RDR2

RePack

NEED FOR SPEED™ PAYBACK

4 сезон

9 сезон

Бесстыжие 9 сезон

Все сериалы

все сериалы на PB.wtf

RePack

FAR CRY 5

Anonymous, добрый вечер, мы катастрофически не успеваем собрать деньги на оплату серверов, помогите нам пожалуйста 5,10,15р., для нас важна любая помощь . В качестве благодарности мы отключим Вам всю рекламу на сайте (укажите свой ник в строку Ваше имя)!

×
  
Magnet ссылка

Чудища морей 3D: Доисторическое приключение / Sea Monsters: A Prehistoric Adventure (Шон Маклеод Филлипс) [2007 г., мультфильм, документальный, короткометражка, приключения, HDRip] Anaglyph, red'cyan pb.wtf

Чудища морей 3D: Доисторическое приключение через торрент pb.wtf

Размер: 4.48 GB | Добавлен: 10 лет назад | Торрент скачан:429 раз
Смотреть онлайн Чудища морей 3D: Доисторическое приключение | Скачать    Ребята, помогите собрать деньги на оплату серверов!!!

16-08-2011 13:33 Чудища морей 3D: Доисторическое приключение Скачать торрент  

Чудища морей 3D: Доисторическое приключение / Sea Monsters: A Prehistoric Adventure

Год выпуска: 2007
Страна: США
Жанр: мультфильм, документальный, короткометражка, приключения
Продолжительность: 40 мин.
Перевод: Профессиональный (одноголосый)

Режиссер: Шон Маклеод Филлипс
Продюссер: Jini Durr, Lisa Truitt, Нил Аллен
Сценарий: Mose Richards

Мировой рейтинг IMDB 7.00 (349)


В ролях: текст от автора: Лив Шрайбер

Описание: Фильм, озвученный лауреатом премии "Тони" актером Ливом Шрайбером под музыку замечательного трио в составе Ричарда Эванса, Дэвида Роудса и Питера Гэбриэла, становится для зрителей незабываемым путешествием в малоизученный мир "необычных" — подводных — динозавров. Снятый при поддержке фонда National Science Foundation, он переносит на большой экран удивительные научные открытия и историю жизни самых грандиозных созданий океанских глубин. Эти невиданные создания, начиная с жирафоподобного стиксозавра (Styxosaurus) и "бульдожьей" рыбы ксифактинуса (Xiphactinus) и заканчивая "морским тираннозавром" — 12-метровым хищником тилозавром (Tylosaurus), поражают воображение.

"Впервые создан фильм для гигантского экрана, который рассказывает о существах, обитавших под водой в эпоху динозавров, — говорит продюсер Лиза Труитт, президент компании National Geographic Giant Screen Films and Special Projects. — Это идеальная тема для такого широкого формата; благодаря ему эти гиганты буквально выплывают с экрана на зрителей".

В фильме "Чудища морей 3D. Доисторическое приключение" тесно переплетаются красочная фотореалистическая анимация и уникальные палеонтологические находки со всего мира — сокровища, которые пролили свет на жизнь персонажей фильма.

Доп. информация: Anaglyph, red'cyan
Внимание! Для просмотра нужны анаглифные очки красно-синезеленые

Порядок ракурсов: красный слева

Качество: HDRip
Формат: MKV
Видео кодек: Другой MPEG4-AVC
Аудио кодек: AC3
Видео: 1920x1080 at 23.976 fps 15,2 Мбит/сек
Аудио: Русский: 48 kHz, AC3, 448 kbps , 6 channels ,
Аудио:English: 48 kHz, AC3, 640 kbps , 6 channels ,
Субтитры: English
[Общее
Уникальный идентификатор : 197648733443495602080347980072299425739 (0x94B1C2EC7AF8C76F89693AB310D26FCB)
Полное имя : E:\DVD\Чудища морей 3D - Sea Monsters 3D.mkv
Формат : Matroska
Версия формата : Version 2
Размер файла : 4,48 Гбайт
Продолжительность : 39 м.
Общий поток : 16,3 Мбит/сек
Дата кодирования : UTC 2009-10-07 02:32:35
Программа кодирования : mkvmerge v2.9.8 ('C'est le bon') built on Aug 13 2009 12:49:06
Библиотека кодирования : libebml v0.7.7 + libmatroska v0.8.1

Видео
Идентификатор : 1
Формат : AVC
Формат/Информация : Advanced Video Codec
Профиль формата : High@L4.1
Параметр CABAC формата : Да
Параметр ReFrames формата : 4 кадра
Параметры GOP формата : M=1, N=24
Идентификатор кодека : V_MPEG4/ISO/AVC
Продолжительность : 39 м.
Битрейт : 15,2 Мбит/сек
Ширина : 1920 пикс.
Высота : 1080 пикс.
Соотношение сторон : 16:9
Частота кадров : 23,976 кадр/сек
Цветовое пространство : YUV
Подвыборка цветности : 4:2:0
Битовая глубина : 8 бит
Тип развёртки : Прогрессивная
Бит/(Пиксели*Кадры) : 0.305
Размер потока : 4,09 Гбайт (91%)
Заголовок : x264
Библиотека кодирования : x264 core 76 r1271 496d79d
Настройки программы : cabac=1 / ref=4 / deblock=1:-3:-3 / analyse=0x3:0x113 / me=umh / subme=10 / psy=1 / psy_rd=1.0:0.0 / mixed_ref=1 / me_range=32 / chroma_me=1 / trellis=2 / 8x8dct=1 / cqm=0 / deadzone=21,11 / chroma_qp_offset=-2 / threads=6 / nr=0 / decimate=1 / mbaff=0 / bframes=6 / b_pyramid=1 / b_adapt=2 / b_bias=0 / direct=3 / wpredb=1 / keyint=250 / keyint_min=25 / scenecut=40 / rc=2pass / mbtree=0 / bitrate=15168 / ratetol=1.0 / qcomp=0.60 / qpmin=10 / qpmax=51 / qpstep=4 / cplxblur=20.0 / qblur=0.5 / ip_ratio=1.40 / pb_ratio=1.30 / aq=1:0.80
Язык : English

Аудио #1
Идентификатор : 2
Формат : AC-3
Формат/Информация : Audio Coding 3
Расширение режима : CM (complete main)
Идентификатор кодека : A_AC3
Продолжительность : 39 м.
Вид битрейта : Постоянный
Битрейт : 448 Кбит/сек
Каналы : 6 каналов
Расположение каналов : Front: L C R, Side: L R, LFE
Частота : 48,0 КГц
Битовая глубина : 16 бит
Метод сжатия : С потерями
Размер потока : 126 Мбайт (3%)
Заголовок : AC3 5.1 (448 kbps)
Язык : Russian

Аудио #2
Идентификатор : 3
Формат : AC-3
Формат/Информация : Audio Coding 3
Расширение режима : CM (complete main)
Идентификатор кодека : A_AC3
Продолжительность : 39 м.
Вид битрейта : Постоянный
Битрейт : 640 Кбит/сек
Каналы : 6 каналов
Расположение каналов : Front: L C R, Side: L R, LFE
Частота : 48,0 КГц
Битовая глубина : 16 бит
Метод сжатия : С потерями
Размер потока : 181 Мбайт (4%)
Заголовок : AC3 5.1 (640 kbps)
Язык : English

Текст
Идентификатор : 4
Формат : ASS
Идентификатор кодека : S_TEXT/ASS
Идентификатор кодека/Информация : Advanced Sub Station Alpha
Метод сжатия : Без потерь
Язык : English]



pb.wtf



Скачать Чудища морей 3D: Доисторическое приключение через торрент http://i25.fastpic.ru/big/2011/0816/60/abcc3f94eaf4b2f0856ee912d4ea1860.jpg Скачать, смотреть онлайн Чудища морей 3D: Доисторическое приключение бесплантно в хорошем качестве Описание: Фильм, озвученный лауреатом премии "Тони" актером Ливом Шрайбером под музыку замечательного трио в составе Ричарда Эванса, Дэвида ... 10 10 6
Info! Золотая раздача, скачанное не засчитывается.
Торрент: Зарегистрирован [2011-08-16 13:33] · скачан: 429 раз
Статус: √ проверено
Размер: 4.48 GB
Как cкачать? Как скачать Чудища морей 3D: Доисторическое приключение через торрент | UTorrent

28-11-2019 20:33  

Отключить всю рекламу на сайте

17-08-2011 13:56 Чудища морей 3D: Доисторическое приключение Скачать торрент  

отличноpb.wtf



17-08-2011 15:31 Чудища морей 3D: Доисторическое приключение Скачать торрент  

Старался . Пишите коменты , стоит-ли раздавать в 3D ? На остальных моих раздачах - скачали и тишина .pb.wtf



09-06-2012 19:41 Чудища морей 3D: Доисторическое приключение Скачать торрент  

конечно стоит!!!!!!!pb.wtf



10-06-2012 15:26 Чудища морей 3D: Доисторическое приключение Скачать торрент  

slaventi-69

А можно вопрос...? Есть - "стереопара" и есть "3-D пара", как этот фильм смотреть на "LG 42 lw 4500"...? В комплекте с телевизором - идут 7 пар очков, на корпусе и в инструкции, написано - 3-D...!pb.wtf



10-06-2012 17:16 Чудища морей 3D: Доисторическое приключение Скачать торрент  

СПАМ Dreamer писал(а):

slaventi-69

А можно вопрос...? Есть - "стереопара" и есть "3-D пара", как этот фильм смотреть на "LG 42 lw 4500"...? В комплекте с телевизором - идут 7 пар очков, на корпусе и в инструкции, написано - 3-D...!

Через очки со светофильтрами ( красно-синие), на лотках эквивалент 1,5 у.е за картонные, с книжкой или ДВД около 3х, в пластике начинаются от 5-ти, качество вырви глаз, по сравнение с поляриками так что лучше ищи анаморф, я в анаглифе только фотки смотрел-раньше, пока ЛЫЖ не было...pb.wtf



31-01-2015 14:37 Чудища морей 3D: Доисторическое приключение Скачать торрент  

посмотрим с младшим, спасибоpb.wtf



    Дорогой пользователь! Огромная просьба, поблагодарите релизера, оцените раздачу и оставьте свои комментарий, если Вы скачали Чудища морей 3D: Доисторическое приключение через торрент бесплатно!
    Комментировать посты могут только пользователи прошедшие не сложную регистрацию
    Показать сообщения:    

    Чудища морей 3D: Доисторическое приключение через торрент
    Скачать бесплатно Чудища морей 3D: Доисторическое приключение
    Чудища морей 3D: Доисторическое приключение скачать торрент
    Чудища морей 3D: Доисторическое приключение смотреть онлайн
    Cкачать фильм Чудища морей 3D: Доисторическое приключение бесплатно
    Чудища морей 3D: Доисторическое приключение скачать торрент в хорошем качестве
    Чудища морей 3D: Доисторическое приключение смотреть онлайн бесплатно в хорошем качестве


    Вы не можете начинать темы
    Вы не можете отвечать на сообщения
    Вы не можете редактировать свои сообщения
    Вы не можете удалять свои сообщения
    Вы не можете голосовать в опросах
    Вы не можете прикреплять файлы к сообщениям
    Вы можете скачивать файлы