2 сезон

iTunes

1 сезон

1

iTunes

iTunes

iTunes

1 сезон

RePack

30

ИГРА 18+

pack

ВАЖНО

!!Акция!!

Alien_RageХит недели

RePack

MK11
pack

Забери бонус

RePack

jed

!!Акция!!

Alien_Rage

RePack

fifa19

RePack

Assassins Creed: Odyssey

RePack

NEED FOR SPEED™ PAYBACK

4 сезон

9 сезон

Бесстыжие 9 сезон

Все сериалы

все сериалы на PB.wtf

RePack

FAR CRY 5
  

Скуби-Ду на острове Мертвецов / Scooby-Doo on Zombie Island (Хироши Аояма, Казуми Фукушима / Hiroshi Aoyama, Kazumi Fukushima) [1998, мультфильм, ужасы, триллер, комедия, детектив, DVDRip] DUB pb.wtf

Скуби-Ду на острове Мертвецов через торрент pb.wtf

Размер: 745 MB | Добавлен: 9 лет 2 мес. назад | Торрент скачан:188 раз
Скачать  

16-08-2011 16:27 Скуби-Ду на острове Мертвецов Скачать торрент  

Скуби-Ду на острове Мертвецов / Scooby-Doo on Zombie Island
Страна: США
Жанр: мультфильм, ужасы, триллер, комедия, детектив
Продолжительность: 01:16:08
Год выпуска: 1998
Перевод: Профессиональный (дублированный)
Русские субтитры: нет
Режиссёр: Хироши Аояма, Казуми Фукушима / Hiroshi Aoyama, Kazumi Fukushima

Описание: Команда Скуби-Ду должна разгадать ужаснейшую тайну — на острове поселился призрак — головорез, не дающий никому покоя, и от него надо избавиться. Но монстр оказался не единственным, кто встретился им на пути, — там бродят существа и пострашнее.
Качество: DVDRip
Формат: AVI
Видео: 640x480 (1.33:1), 23.976 fps, XviD build 50, 1167 kbps avg, 0.16 bit/pixel
Аудио: Dolby AC3 48000Hz stereo 192kbps
Субтитры: Отсутствуют
Format : AVIFormat/Info : Audio Video InterleaveFile size : 745 MiBDuration : 1h 16mnOverall bit rate : 1 369 KbpsWriting application : VirtualDubMod 1.5.10.2 (build 2540/release)Writing library : VirtualDubMod build 2540/release
VideoID : 0Format : MPEG-4 VisualFormat profile : Advanced Simple@L5Format settings, BVOP : YesFormat settings, QPel : NoFormat settings, GMC : No warppointsFormat settings, Matrix : Default (H.263)Codec ID : XVIDCodec ID/Hint : XviDDuration : 1h 16mnBit rate : 1 167 KbpsWidth : 640 pixelsHeight : 480 pixelsDisplay aspect ratio : 4:3Frame rate : 23.976 fpsColor space : YUVChroma subsampling : 4:2:0Bit depth : 8 bitsScan type : ProgressiveBits/(Pixel*Frame) : 0.158Stream size : 636 MiB (85%)Writing library : XviD 1.2.1 (UTC 2008-12-04)
AudioID : 1Format : AC-3Format/Info : Audio Coding 3Mode extension : CM (complete main)Codec ID : 2000Duration : 1h 16mnBit rate mode : ConstantBit rate : 192 KbpsChannel(s) : 2 channelsChannel positions : Front: L RSampling rate : 48.0 KHzBit depth : 16 bitsStream size : 105 MiB (14%)Alignment : Split accross interleavesInterleave, duration : 42 ms (1.00 video frame)Interleave, preload duration : 500 ms
pb.wtf



Скачать Скуби-Ду на острове Мертвецов через торрент http://i15.fastpic.ru/big/2011/0123/4e/58db41186613a8377975e27d924a9e4e.png Скачать фильм Скуби-Ду на острове Мертвецов через торрент бесплантно в хорошем качестве Описание: Команда Скуби-Ду должна разгадать ужаснейшую тайну — на острове поселился призрак — головорез, не дающий никому покоя, и от него ... 10 10 4
Info! Золотая раздача, скачанное не засчитывается.
Торрент: Зарегистрирован [2011-08-16 16:27] · скачан: 188 раз
Статус: √ проверено
Размер: 745 MB
Как cкачать? Как скачать Скуби-Ду на острове Мертвецов через торрент | qTorrent

28-11-2019 20:33  

Отключить всю рекламу на сайте

    Дорогой пользователь! Огромная просьба, поблагодарите релизера, оцените раздачу и оставьте свои комментарий, если Вы скачали Скуби-Ду на острове Мертвецов через торрент бесплатно! Внесите свою лепту в развитие PiratBit!
    Комментировать посты могут только пользователи прошедшие не сложную регистрацию
    Показать сообщения:    

    Скуби-Ду на острове Мертвецов через торрент
    Скачать бесплатно Скуби-Ду на острове Мертвецов
    Скуби-Ду на острове Мертвецов скачать торрент
    Скуби-Ду на острове Мертвецов смотреть онлайн
    Cкачать фильм Скуби-Ду на острове Мертвецов бесплатно
    Скуби-Ду на острове Мертвецов скачать торрент в хорошем качестве
    Скуби-Ду на острове Мертвецов смотреть онлайн бесплатно в хорошем качестве


    Вы не можете начинать темы
    Вы не можете отвечать на сообщения
    Вы не можете редактировать свои сообщения
    Вы не можете удалять свои сообщения
    Вы не можете голосовать в опросах
    Вы не можете прикреплять файлы к сообщениям
    Вы можете скачивать файлы