Ссылка на приватное зеркало нашего сайта всего за 1$. Внимание количество ограничено!!!

2 сезон

iTunes

1 сезон

1

2 сезон

2 сезон

iTunes

1 сезон

RePack

30

Ultimate

ВАЖНО

ИГРА 18+

pack

RePack

MK11
pack

Забери бонус

RePack

jed

!!Акция!!

Alien_Rage

RePack

fifa19

RePack

Assassins Creed: Odyssey

RePack

NEED FOR SPEED™ PAYBACK

4 сезон

9 сезон

Бесстыжие 9 сезон

Все сериалы

все сериалы на PB.wtf

RePack

FAR CRY 5
  

Беверли-Хиллз 90210:Новое поколение, 3 сезон 22 серии из 22 / 90210:The Next Generation (Марк Пизнарский) [2010, Драма, Мелодрама HDTVRip] pb.wtf

Беверли-Хиллз 90210:Новое поколение, 3 сезон 22 серии из 22 через торрент pb.wtf

Размер: 10.99 GB | Добавлен: 9 лет 3 мес. назад | Торрент скачан:0 раз
Скачать  

16-08-2011 18:34 Беверли-Хиллз 90210:Новое поколение, 3 сезон 22 серии из 22 Скачать торрент  



Беверли-Хиллз 90210: Новое поколение / Beverly Hills 90210: The Next Generation



Год выпуска: 2010-2011
Страна: США
Жанр: Драма, Мелодрама
Продолжительность: ~ 00:45:00
Перевод 1: Профессиональный (одноголосый) Dexter.TV
Перевод 2: Любительский (одноголосый, закадровый)


Режиссер: Стюарт Гиллард, Норман Баккли, Ник Марк
Продюссер: Джоэнн МакКул, Джефф Джуда, Венди Станцлер
Сценарий: Даррен Стар, Каприс Крэйн, Марк Дрисколл


В ролях: Шенайя Граймс, Тристан Уайлдз, Роб Эстас, Лорри Лафлин, Джессика Уолтер, Анналинн МакКорд, Дастин Миллиган, Майкл Стэгер, Джессика Строуп, Райан Эгголд и др



Ремейк популярного сериала 1990 года «Беверли Хиллз 90210». История старшеклассников из школы «Беверли Хиллз, 90210» будет продолжена. Гарри Уилсон перевозит жену, дочь Энни и сына Диксона из Канзаса в Лос-Анджелес. В школе появятся дети разных рас и религий, и большинство учеников будут жить в обычных (по меркам богатого Беверли Хиллз) домах, появятся свои лидеры и изгои, с новыми героями вернуться старые проблемы…




Качество: HDTVRip
Формат: AVI
Видео кодек: XviD
Аудио кодек: MP3
Видео: 624x352 (1.77:1), XviD, 23.976 fps, ~1331 kbps, 0.28 bit/pixel
Аудио: 44.100 kHz, MPEG Layer 3, 2 ch ~ 192.00 kbps avg

Общее
Полное имя : C:\торенты\90210 Новое поколение 3 сезон\beverli_hillz_90210_novoe_pokolenie_s03_e01_[tfile.ru].avi
Формат : AVI
Формат/Информация : Audio Video Interleave
Размер файла : 451 Мбайт
Продолжительность : 41 м.
Общий поток : 1533 Кбит/сек
Программа кодирования : transcode-1.0.6
Библиотека кодирования : VirtualDub build 32507/release

Видео
Идентификатор : 0
Формат : MPEG-4 Visual
Профиль формата : Simple@L1
Параметр BVOP формата : Нет
Параметр QPel формата : Нет
Параметр GMC формата : Без точки перехода
Параметр матрицы формата : Default (H.263)
Идентификатор кодека : XVID
Идентификатор кодека/Подсказка : XviD
Продолжительность : 41 м.
Битрейт : 1331 Кбит/сек
Ширина : 624 пикс.
Высота : 352 пикс.
Соотношение сторон : 16:9
Частота кадров : 23,976 кадр/сек
Цветовое пространство : YUV
Подвыборка цветности : 4:2:0
Битовая глубина : 8 бит
Тип развёртки : Прогрессивная
Метод сжатия : С потерями
Бит/(Пиксели*Кадры) : 0.253
Размер потока : 392 Мбайт (87%)
Библиотека кодирования : Lavc52.70.0

Аудио
Идентификатор : 1
Формат : MPEG Audio
Версия формата : Version 1
Профиль формата : Layer 3
Идентификатор кодека : 55
Идентификатор кодека/Подсказка : MP3
Продолжительность : 41 м.
Вид битрейта : Постоянный
Битрейт : 192 Кбит/сек
Каналы : 2 канала
Частота : 44,1 КГц
Метод сжатия : С потерями
Размер потока : 56,5 Мбайт (13%)
Выравнивание : Разделение по промежуткам
Продолжительность промежутка : 42 мс. (1,00 видеокадр)
Время предзагрузки промежутка : 500 ms
скриншот  скриншот  скриншот  скриншот  скриншот  скриншот  pb.wtf



Скачать Беверли-Хиллз 90210:Новое поколение, 3 сезон 22 серии из 22 через торрент http://i26.fastpic.ru/big/2011/0816/82/d93f15bb7d56fd84ed4194299ec48e82.jpg Скачать фильм Беверли-Хиллз 90210:Новое поколение, 3 сезон 22 серии из 22 через торрент бесплантно в хорошем качестве В ролях: Шенайя Граймс, Тристан Уайлдз, Роб Эстас, Лорри Лафлин, Джессика Уолтер, Анналинн МакКорд, Дастин Миллиган, Майкл Стэгер, Джессика ... 5 10 1
Info! Золотая раздача, скачанное не засчитывается.
Торрент: Зарегистрирован [2011-08-16 18:34] · скачан: 0 раз
Статус: √ проверено
Размер: 10.99 GB
Как cкачать? Как скачать Беверли-Хиллз 90210:Новое поколение, 3 сезон 22 серии из 22 через торрент | qTorrent

28-11-2019 20:33  

Отключить всю рекламу на сайте

30-08-2011 00:59 Беверли-Хиллз 90210:Новое поколение, 3 сезон 22 серии из 22 Скачать торрент  

According to the sensitive degree ,we can divide consume as three part,Sensitive style,subiective style and Silent type. Sensitive cunsomer have a large demand for fashion.Those people may be old may be not rich,they have a strong Demand and a sense of dependence, fashion Tiffany i love you ring [www.minebuty.com] is just like navigator guide their life, they can get beauty value from fashion and feel well. Sensitive people has no unique beauty definition,they want get laudation from others, they won't stop to chase fashion style.The other two kinds of fashion consume is not the same as sensitive consume, they need't large demand for fashion Tiffany Shopping Bag [www.minebuty.com] and won't be dependence for it, they just use fashion to make their life much more better. they beauty definition is very clearly, they don't want get too much change.pb.wtf



    Дорогой пользователь! Огромная просьба, поблагодарите релизера, оцените раздачу и оставьте свои комментарий, если Вы скачали Беверли-Хиллз 90210:Новое поколение, 3 сезон 22 серии из 22 через торрент бесплатно! Внесите свою лепту в развитие PiratBit!
    Комментировать посты могут только пользователи прошедшие не сложную регистрацию
    Показать сообщения:    

    Беверли-Хиллз 90210:Новое поколение, 3 сезон 22 серии из 22 через торрент
    Скачать бесплатно Беверли-Хиллз 90210:Новое поколение, 3 сезон 22 серии из 22
    Беверли-Хиллз 90210:Новое поколение, 3 сезон 22 серии из 22 скачать торрент
    Беверли-Хиллз 90210:Новое поколение, 3 сезон 22 серии из 22 смотреть онлайн
    Cкачать фильм Беверли-Хиллз 90210:Новое поколение, 3 сезон 22 серии из 22 бесплатно
    Беверли-Хиллз 90210:Новое поколение, 3 сезон 22 серии из 22 скачать торрент в хорошем качестве
    Беверли-Хиллз 90210:Новое поколение, 3 сезон 22 серии из 22 смотреть онлайн бесплатно в хорошем качестве


    Вы не можете начинать темы
    Вы не можете отвечать на сообщения
    Вы не можете редактировать свои сообщения
    Вы не можете удалять свои сообщения
    Вы не можете голосовать в опросах
    Вы не можете прикреплять файлы к сообщениям
    Вы можете скачивать файлы