Ссылка на приватное зеркало нашего сайта всего за 1$. Внимание количество ограничено!!!

2 сезон

iTunes

1 сезон

1

2 сезон

2 сезон

iTunes

1 сезон

RePack

30

Новинка

ВАЖНО

ИГРА 18+

pack

RePack

MK11
pack

Забери бонус

RePack

jed

!!Акция!!

Alien_Rage

RePack

fifa19

RePack

Assassins Creed: Odyssey

RePack

NEED FOR SPEED™ PAYBACK

4 сезон

9 сезон

Бесстыжие 9 сезон

Все сериалы

все сериалы на PB.wtf

RePack

FAR CRY 5
  

Бунт ушастых / Hop (Тим Хилл / Tim Hill) [2011г., мультфильм, фэнтези, комедия, семейный, BDRip 1080p] pb.wtf

Бунт ушастых через торрент pb.wtf

Размер: 8.46 GB | Добавлен: 9 лет 3 мес. назад | Торрент скачан:218 раз
Скачать  

17-08-2011 08:21 Бунт ушастых Скачать торрент  

Год выпуска: 2011
Страна: США
Слоган: «Конфетки, цыпочки и рок-н-ролл»

Жанр: мультфильм, фэнтези, комедия, семейный
Продолжительность: 01:35:00
Перевод: Профессиональный (полное дублирование) [лицензия]

Режиссер: Тим Хилл
В ролях: Джеймс Марсден, Расселл Брэнд, Кейли Куоко, Хэнк Азария, Гэри Коул, Элизабет Перкинс, Хью Лори, Тиффани Эспенсен, Дэвид Хэсселхофф, Челси Хэндлер
Бюджет: $63 000 000
Сборы в США: $108 085 305
Сборы в России: $2 871 045
Сборы в мире: $183 341 623

Мировая премьера: 30 марта 2011
Релиз на DVD: 13 октября 2011, «Двадцатый Век Фокс СНГ»
Описание: Безработный лоботряс Фред однажды сбивает машиной Пасхального кролика. Пока сказочный грызун поправляет здоровье, герой вынужден занять его место, приступив к раздаче крашеных яиц детишкам по всему миру.


MPAA: - Рекомендуется присутствие родителей
Качество: BDRip 1080p
Формат: Matroska

Видео: 10.5 mb/s, 1920x1040, 23,976 кадр/сек
Аудио: Russian: DTS, 755 kb/s (6 ch) / English: DTS, 1510 kb/s (6 ch)
Субтитры: Russian [Forced], English

Общее
Уникальный идентификатор : 245150303059456775005712014852220840995 (0xB86E3B1FC979D462BF4CF90190C0EC23)
Полное имя : C:ФильмыHop.2011.D.BDRip.1080p.mkv
Формат : Matroska
Версия формата : Version 2
Размер файла : 8,46 Гбайт
Продолжительность : 1 ч. 35 м.
Общий поток : 12,7 Мбит/сек
Название фильма : Бунт ушастых / Hop (2011) .....:::UNIONGANG:::.....
Дата кодирования : UTC 2011-08-16 19:06:26
Программа кодирования : mkvmerge v4.9.1 ('Ich will') сборка от Jul 11 2011 23:53:15
Библиотека кодирования : libebml v1.2.1 + libmatroska v1.1.1

Видео
Идентификатор : 1
Формат : AVC
Формат/Информация : Advanced Video Codec
Профиль формата : High@L4.1
Параметр CABAC формата : Да
Параметр ReFrames формата : 4 кадра
Идентификатор кодека : V_MPEG4/ISO/AVC
Продолжительность : 1 ч. 35 м.
Битрейт : 10,5 Мбит/сек
Ширина : 1920 пикс.
Высота : 1040 пикс.
Соотношение сторон : 16:9
Частота кадров : 23,976 кадр/сек
Цветовое пространство : YUV
Подвыборка цветности : 4:2:0
Битовая глубина : 8 бит
Тип развёртки : Прогрессивная
Бит/(Пиксели*Кадры) : 0.219
Размер потока : 6,79 Гбайт (80%)
Заголовок : Hop.2011.1080p.BluRay.x264.DTS-WiKi
Библиотека кодирования : x264 core 98 r1649 c54c47d
Настройки программы : cabac=1 / ref=4 / deblock=1:-3:-3 / analyse=0x3:0x113 / me=umh / subme=9 / psy=1 / psy_rd=1.10:0.00 / mixed_ref=1 / me_range=32 / chroma_me=1 / trellis=2 / 8x8dct=1 / cqm=0 / deadzone=21,11 / fast_pskip=0 / chroma_qp_offset=-4 / threads=6 / sliced_threads=0 / nr=0 / decimate=0 / interlaced=0 / constrained_intra=0 / bframes=6 / b_pyramid=2 / b_adapt=2 / b_bias=0 / direct=3 / weightb=1 / weightp=2 / keyint=250 / keyint_min=25 / scenecut=40 / intra_refresh=0 / rc_lookahead=48 / rc=2pass / mbtree=1 / bitrate=10469 / ratetol=1.0 / qcomp=0.60 / qpmin=10 / qpmax=51 / qpstep=4 / cplxblur=20.0 / qblur=0.5 / ip_ratio=1.40 / aq=1:0.80
Язык : English

Аудио #1
Идентификатор : 2
Формат : DTS
Формат/Информация : Digital Theater Systems
Идентификатор кодека : A_DTS
Продолжительность : 1 ч. 35 м.
Вид битрейта : Постоянный
Битрейт : 755 Кбит/сек
Каналы : 6 каналов
Расположение каналов : Front: L C R, Side: L R, LFE
Частота : 48,0 КГц
Битовая глубина : 24 бит
Метод сжатия : С потерями
Размер потока : 513 Мбайт (6%)
Заголовок : DTS 5.1 @ 755 kb/s [Russian R5]
Язык : Russian

Аудио #2
Идентификатор : 3
Формат : DTS
Формат/Информация : Digital Theater Systems
Идентификатор кодека : A_DTS
Продолжительность : 1 ч. 35 м.
Вид битрейта : Постоянный
Битрейт : 1510 Кбит/сек
Каналы : 6 каналов
Расположение каналов : Front: L C R, Side: L R, LFE
Частота : 48,0 КГц
Битовая глубина : 24 бит
Метод сжатия : С потерями
Размер потока : 1,00 Гбайт (12%)
Заголовок : DTS 5.1 @ 1510 kb/s [English]
Язык : English

Текст #1
Идентификатор : 4
Формат : UTF-8
Идентификатор кодека : S_TEXT/UTF8
Идентификатор кодека/Информация : UTF-8 Plain Text
Заголовок : Russian [Forced]
Язык : Russian

Текст #2
Идентификатор : 5
Формат : UTF-8
Идентификатор кодека : S_TEXT/UTF8
Идентификатор кодека/Информация : UTF-8 Plain Text
Заголовок : English
Язык : English
Скриншоты:
pb.wtf



Скачать Бунт ушастых через торрент http://images.k236.net/images/92f4781473.png Скачать фильм Бунт ушастых через торрент бесплантно в хорошем качестве Описание: Безработный лоботряс Фред однажды сбивает машиной Пасхального кролика. Пока сказочный грызун поправляет здоровье, герой вынужден ... 10 10 2
Info! Золотая раздача, скачанное не засчитывается.
Торрент: Зарегистрирован [2011-08-17 08:21] · скачан: 218 раз
Статус: √ проверено
Размер: 8.46 GB
Как cкачать? Как скачать Бунт ушастых через торрент | qTorrent

% Раздел Тема Автор DL S | L
Иностранные мультфильмы [ 1.37 GB ] Бунт ушастых / Hop [2011 анимация HDRip лицензия] SD Скачать
1 | 0
Зарубежные Мультфильмы (DVD) [ 5.77 GB ] Бунт ушастых / Hop / Hop [2011 мультфильм DVD9] R5 «Двадцатый Век Фокс СНГ» voovaz Скачать
1 | 0
Зарубежные Мультфильмы (BDRip 1080p, 720p, Blu-ray, BD-Remux) [ 20.05 GB ] Бунт ушастых / Hop [2011 мультфильм BDRemux 1080p] NarutoSasuke Скачать
1 | 0
Зарубежные Мультфильмы (BDRip 1080p, 720p, Blu-ray, BD-Remux) [ 2.19 GB ] Бунт ушастых / Hop [2011 BDRip лицензия] Anonymous Скачать
1 | 0
Зарубежные Мультфильмы (BDRip 1080p, 720p, Blu-ray, BD-Remux) [ 28.63 GB ] Бунт ушастых / Hop [2011 мультфильм Blu-ray 1080p] [EUR] diletant Скачать
1 | 0
Иностранные мультфильмы [ 1.45 GB ] Бунт ушастых / Hop [2011 анимация BDRip лицензия] Friendly Скачать
1 | 0
Зарубежные Мультфильмы (BDRip 1080p, 720p, Blu-ray, BD-Remux) [ 5.42 GB ] Бунт ушастых / Hop [2011 мультфильм BDRip 720p] diletant Скачать
1 | 0

28-11-2019 20:33  

Отключить всю рекламу на сайте

    Дорогой пользователь! Огромная просьба, поблагодарите релизера, оцените раздачу и оставьте свои комментарий, если Вы скачали Бунт ушастых через торрент бесплатно! Внесите свою лепту в развитие PiratBit!
    Комментировать посты могут только пользователи прошедшие не сложную регистрацию
    Показать сообщения:    

    Бунт ушастых через торрент
    Скачать бесплатно Бунт ушастых
    Бунт ушастых скачать торрент
    Бунт ушастых смотреть онлайн
    Cкачать фильм Бунт ушастых бесплатно
    Бунт ушастых скачать торрент в хорошем качестве
    Бунт ушастых смотреть онлайн бесплатно в хорошем качестве


    Вы не можете начинать темы
    Вы не можете отвечать на сообщения
    Вы не можете редактировать свои сообщения
    Вы не можете удалять свои сообщения
    Вы не можете голосовать в опросах
    Вы не можете прикреплять файлы к сообщениям
    Вы можете скачивать файлы