Ссылка на приватное зеркало нашего сайта всего за 1$. Внимание количество ограничено!!!

2 сезон

iTunes

1 сезон

1

iTunes

iTunes

iTunes

1 сезон

RePack

30

ИГРА 18+

pack

ВАЖНО

!!Акция!!

Alien_RageХит недели

RePack

MK11
pack

Забери бонус

RePack

jed

!!Акция!!

Alien_Rage

RePack

fifa19

RePack

Assassins Creed: Odyssey

RePack

NEED FOR SPEED™ PAYBACK

4 сезон

9 сезон

Бесстыжие 9 сезон

Все сериалы

все сериалы на PB.wtf

RePack

FAR CRY 5
  

Жених напрокат / Something Borrowed (Люк Гринфилд / Luke Greenfield) [2011, США, Драма, мелодрама, комедия, BDRip 720p] DUB Sub rus + original eng pb.wtf

Жених напрокат через торрент pb.wtf

Размер: 6.86 GB | Добавлен: 9 лет 2 мес. назад | Торрент скачан:91 раз
Скачать  

17-08-2011 10:24 Жених напрокат Скачать торрент  

Жених напрокат / Something Borrowed
Страна: США
Студия: 2S Films, Alcon Entertainment, Wild Ocean Films
Жанр: Драма, мелодрама, комедия
Год выпуска: 2011
Продолжительность: 01:52:41
Перевод: Профессиональный (дублированный) [лицензия]
Cубтитры: Русские, английские
Оригинальная аудиодорожка: английский
Режиссер: Люк Гринфилд / Luke Greenfield

В ролях: Джиннифер Гудвин, Кейт Хадсон, Колин Эглсфилд, Джон Красински, Стив Хоуи, Эшли Уильямс, Джеффри Пирсон, Джилл Айкенберри, Джонатан Эпштейн, Лея Томпсон

Описание: Легкомысленная невеста, много сил потратившая на то, чтобы привести своего бойфренда к мысли о браке, даже не подозревает, что ее лучшая подруга, успешный адвокат, посвятившая лучшие годы своей жизни карьере, может оказаться в постели с ее женихом, мгновенно завоевав его душу, сердце и тело… Короче, парень попал. Приближается день свадьбы. Кто же пойдет под венец?
Сэмпл: http://multi-up.com/540646
Тип релиза: BDRip 720p - CtrlHD
Контейнер: MKV
Видео: MPEG-4 AVC, 6822 Kбит/с, 1280x720, 23.976 кадр/с
Аудио: Русский (AC3, 6 ch, 384 Кбит/с, 48 KHz)
Аудио 2: Английский (DTS, 6 ch, 1536 Кбит/с, 48 KHz)
General
Complete name : D:\Zhenih.na.prokat.2011.x264.BDRip.720p-HDCLUB.mkv
Format : Matroska
File size : 6.86 GiB
Duration : 1h 52mn
Overall bit rate : 8 715 Kbps
Movie name : Something Borrowed (2011) - Release for HDCLUB
Encoded date : UTC 2011-08-16 11:55:59
Writing application : mkvmerge v3.4.0 ('Rapunzel') built on May 15 2010 09:38:20
Writing library : libebml v0.8.0 + libmatroska v0.9.0
Video
ID : 1
Format : AVC
Format/Info : Advanced Video Codec
Format profile : High@L4.1
Format settings, CABAC : Yes
Format settings, ReFrames : 9 frames
Muxing mode : Container profile=Unknown@4.1
Codec ID : V_MPEG4/ISO/AVC
Duration : 1h 52mn
Bit rate : 6 647 Kbps
Nominal bit rate : 6 822 Kbps
Width : 1 280 pixels
Height : 720 pixels
Display aspect ratio : 16:9
Frame rate : 23.976 fps
Resolution : 8 bits
Colorimetry : 4:2:0
Scan type : Progressive
Bits/(Pixel*Frame) : 0.301
Stream size : 5.23 GiB (76%)
Title : Release for HDCLUB
Writing library : x264 core 116 r2044 392e762
Encoding settings : cabac=1 / ref=9 / deblock=1:-3:-3 / analyse=0x3:0x133 / me=umh / subme=10 / psy=1 / psy_rd=1.06:0.09 / mixed_ref=1 / me_range=32 / chroma_me=1 / trellis=2 / 8x8dct=1 / cqm=0 / deadzone=21,11 / fast_pskip=1 / chroma_qp_offset=-3 / threads=12 / sliced_threads=0 / nr=0 / decimate=1 / interlaced=0 / bluray_compat=0 / constrained_intra=0 / bframes=8 / b_pyramid=2 / b_adapt=2 / b_bias=0 / direct=3 / weightb=1 / open_gop=1 / weightp=2 / keyint=250 / keyint_min=23 / scenecut=40 / intra_refresh=0 / rc_lookahead=80 / rc=2pass / mbtree=1 / bitrate=6822 / ratetol=1.0 / qcomp=0.60 / qpmin=10 / qpmax=69 / qpstep=4 / cplxblur=20.0 / qblur=0.5 / ip_ratio=1.40 / aq=1:0.80
Language : English
Audio #1
ID : 2
Format : AC-3
Format/Info : Audio Coding 3
Codec ID : A_AC3
Duration : 1h 52mn
Bit rate mode : Constant
Bit rate : 384 Kbps
Channel(s) : 6 channels
Channel positions : Front: L C R, Surround: L R, LFE
Sampling rate : 48.0 KHz
Stream size : 310 MiB (4%)
Title : AC3 5.1 @ 384 kbps - Дублированный
Language : Russian
Audio #2
ID : 3
Format : DTS
Format/Info : Digital Theater Systems
Codec ID : A_DTS
Duration : 1h 52mn
Bit rate mode : Constant
Bit rate : 1 510 Kbps
Channel(s) : 6 channels
Channel positions : Front: L C R, Surround: L R, LFE
Sampling rate : 48.0 KHz
Resolution : 24 bits
Video delay : 11ms
Stream size : 1.19 GiB (17%)
Title : DTS 5.1 @ 1536 kbps
Language : English
Text #1
ID : 4
Format : UTF-8
Codec ID : S_TEXT/UTF8
Codec ID/Info : UTF-8 Plain Text
Language : Russian
Text #2
ID : 5
Format : UTF-8
Codec ID : S_TEXT/UTF8
Codec ID/Info : UTF-8 Plain Text
Language : English
Menu
00:00:00.000 : en:00:00:00.000
00:10:35.885 : en:00:10:35.885
00:20:05.287 : en:00:20:05.287
00:29:14.336 : en:00:29:14.336
00:42:40.183 : en:00:42:40.183
00:49:57.995 : en:00:49:57.995
00:59:43.580 : en:00:59:43.580
01:09:57.151 : en:01:09:57.151
01:22:33.699 : en:01:22:33.699
01:29:18.812 : en:01:29:18.812
01:43:54.603 : en:01:43:54.603
01:47:55.594 : en:01:47:55.594
pb.wtf



Скачать Жених напрокат через торрент http://i26.fastpic.ru/big/2011/0817/d2/490385c4be464d81d82060b0d15358d2.jpg Скачать фильм Жених напрокат через торрент бесплантно в хорошем качестве Описание: Легкомысленная невеста, много сил потратившая на то, чтобы привести своего бойфренда к мысли о браке, даже не подозревает, что ее ... 9 10 1
Info! Золотая раздача, скачанное не засчитывается.
Торрент: Зарегистрирован [2011-08-17 10:24] · скачан: 91 раз
Статус: √ проверено
Размер: 6.86 GB
Как cкачать? Как скачать Жених напрокат через торрент | qTorrent

28-11-2019 20:33  

Отключить всю рекламу на сайте

04-11-2011 11:21 Жених напрокат Скачать торрент  

Фильм не понравился!!!..Слишком там все затянуто и занудно....
И вообще даже для американской комедии мало смешного..pb.wtf



    Дорогой пользователь! Огромная просьба, поблагодарите релизера, оцените раздачу и оставьте свои комментарий, если Вы скачали Жених напрокат через торрент бесплатно! Внесите свою лепту в развитие PiratBit!
    Комментировать посты могут только пользователи прошедшие не сложную регистрацию
    Показать сообщения:    

    Жених напрокат через торрент
    Скачать бесплатно Жених напрокат
    Жених напрокат скачать торрент
    Жених напрокат смотреть онлайн
    Cкачать фильм Жених напрокат бесплатно
    Жених напрокат скачать торрент в хорошем качестве
    Жених напрокат смотреть онлайн бесплатно в хорошем качестве


    Вы не можете начинать темы
    Вы не можете отвечать на сообщения
    Вы не можете редактировать свои сообщения
    Вы не можете удалять свои сообщения
    Вы не можете голосовать в опросах
    Вы не можете прикреплять файлы к сообщениям
    Вы можете скачивать файлы