2 сезон

iTunes

MVO

1

2 сезон

iTunes

iTunes

1 сезон

RePack

30

Новинка

ВАЖНО

ИГРА 18+

pack

RePack

MK11
pack

Легкие деньги

RePack

jed

RePack

fifa19

RePack

RDR2

RePack

NEED FOR SPEED™ PAYBACK

4 сезон

9 сезон

Бесстыжие 9 сезон

Все сериалы

все сериалы на PB.wtf

RePack

FAR CRY 5

Anonymous, добрый вечер, мы не успеваем собрать деньги на оплату серверов за декабрь и январь, помогите нам пожалуйста в это трудное время. В качестве благодарности мы отключим Вам всю рекламу на сайте (укажите свой ник в строку Ваше имя)!

×
  
Magnet ссылка

Врата 3Д / The Hole 3D (Джо Данте) [2009 г., Ужасы, HDRip] Анаглиф red-cyan pb.wtf

Врата 3Д через торрент pb.wtf

Размер: 2 GB | Добавлен: 9 лет 5 мес. назад | Торрент скачан:451 раз
Скачать  

20-08-2011 09:20 Врата 3Д Скачать торрент  

Врата 3Д / The Hole 3D

Год выпуска: 2009
Страна: США
Жанр: Ужасы
Продолжительность: 01:32:29
Перевод: Профессиональный (полное дублирование) [Лицензия]

Режиссер: Джо Данте

В ролях: Крис Дж. Келли, Тери Поло, Брюс Дерн, Хейли Беннетт, Натан Гэмбл, Дик Миллер, Куинн Лорд, Джон ДеСантис, Джессика Жюст, Чорд Оуверстрит

Описание: Куда уж хуже! — именно так думает 17-ти летний Дени и его 10-ти летний брат Лукас, когда мать перевозит их из Нью-Йорка в сонный городишко Бенсонвиль. Не спеши расстраиваться Дени: твоя новая соседка Джули очень даже ничего. Мама всё больше пропадает на работе, ей некогда заниматься детьми, и братья находят себе занятие: исследовать своё новое место жительства. Дени всё больше интересуется Джулией, и всё меньше своим младшим братом.
Но всё изменится, когда они найдут зловещую бездонную дыру, закрытую люком в подвале. И открыв крышку люка, братьев пронизывает леденящий сердце холод — этот бездонный колодец является вратами в миры тьмы. И теперь, когда они выпустили зло на волю, в каждой тени оживут их потаённые страхи, и им придётся встретится лицом к лицу с ужасом, чтобы закрыть врата навсегда.

Доп. информация: Формат 3D: Анаглиф red-cyan

Качество: HDRip
Формат: AVI
Видео кодек: XviD
Аудио кодек: AC3
Видео: XviD; 1280x720; 16:9; 23,976 кадр/сек; 2642 Кбит/сек
Аудио: Rus; AC-3; 48,0 КГц; 448 Кбит/сек; 2ch(Front: L R)
[Общее
Полное имя :The Hole 3D_AnRC.avi
Формат : AVI
Формат/Информация : Audio Video Interleave
Профиль формата : OpenDML
Размер файла : 2,00 Гбайт
Продолжительность : 1 ч. 32 м.
Общий поток : 3103 Кбит/сек
Библиотека кодирования : VirtualDub build 32839/release

Видео
Идентификатор : 0
Формат : MPEG-4 Visual
Профиль формата : Advanced Simple@L5
Параметр BVOP формата : 2
Параметр QPel формата : Нет
Параметр GMC формата : Без точки перехода
Параметр матрицы формата : Default (H.263)
Режим смешивания : Сжатый битовый поток
Идентификатор кодека : XVID
Идентификатор кодека/Подсказка : XviD
Продолжительность : 1 ч. 32 м.
Битрейт : 2642 Кбит/сек
Ширина : 1280 пикс.
Высота : 720 пикс.
Соотношение сторон : 16:9
Частота кадров : 23,976 кадр/сек
Цветовое пространство : YUV
Подвыборка цветности : 4:2:0
Битовая глубина : 8 бит
Тип развёртки : Прогрессивная
Метод сжатия : С потерями
Бит/(Пиксели*Кадры) : 0.120
Размер потока : 1,71 Гбайт (85%)
Библиотека кодирования : XviD 1.2.1 (UTC 2008-12-04)

Аудио
Идентификатор : 1
Формат : AC-3
Формат/Информация : Audio Coding 3
Расширение режима : CM (complete main)
Идентификатор кодека : 2000
Продолжительность : 1 ч. 32 м.
Вид битрейта : Постоянный
Битрейт : 448 Кбит/сек
Каналы : 2 канала
Расположение каналов : Front: L R
Частота : 48,0 КГц
Битовая глубина : 16 бит
Метод сжатия : С потерями
Размер потока : 296 Мбайт (14%)
Выравнивание : Соединение по промежуткам
Продолжительность промежутка : 42 мс. (1,00 видеокадр)
Время предзагрузки промежутка : 512 ms]



pb.wtf



Скачать Врата 3Д через торрент http://i26.fastpic.ru/big/2011/0820/5c/40da55feb5bd345bd75ed348ac0f325c.jpg Скачать фильм Врата 3Д через торрент бесплантно в хорошем качестве Описание: Куда уж хуже! — именно так думает 17-ти летний Дени и его 10-ти летний брат Лукас, когда мать перевозит их из Нью-Йорка в сонный ... 10 10 5
Info! Золотая раздача, скачанное не засчитывается.
Торрент: Зарегистрирован [2011-08-20 09:20] · скачан: 451 раз
Статус: √ проверено
Размер: 2 GB
Как cкачать? Как скачать Врата 3Д через торрент | UTorrent

28-11-2019 20:33  

Отключить всю рекламу на сайте

27-12-2012 12:44 Врата 3Д Скачать торрент  

У меня возник вопрос, почему в заголовке написано Врата 3D, если оригинальное название Дыра???pb.wtf



30-12-2012 13:38 Врата 3Д Скачать торрент  

Daminant писал(а):

Врата

Потому что у нас в стране он выходил в прокат именно под названием "Врата"pb.wtf



    Дорогой пользователь! Огромная просьба, поблагодарите релизера, оцените раздачу и оставьте свои комментарий, если Вы скачали Врата 3Д через торрент бесплатно! Внесите свою лепту в развитие PiratBit!
    Комментировать посты могут только пользователи прошедшие не сложную регистрацию
    Показать сообщения:    

    Врата 3Д через торрент
    Скачать бесплатно Врата 3Д
    Врата 3Д скачать торрент
    Врата 3Д смотреть онлайн
    Cкачать фильм Врата 3Д бесплатно
    Врата 3Д скачать торрент в хорошем качестве
    Врата 3Д смотреть онлайн бесплатно в хорошем качестве


    Вы не можете начинать темы
    Вы не можете отвечать на сообщения
    Вы не можете редактировать свои сообщения
    Вы не можете удалять свои сообщения
    Вы не можете голосовать в опросах
    Вы не можете прикреплять файлы к сообщениям
    Вы можете скачивать файлы