1 сезон

3 сезон

iTunes

1

Line

MVO

iTunes

13

1 сезон

RePack

30

Deluxe

pack

Лицензия

ВАЖНО

ИГРА 18+

pack

RePack

MK11

RePack

jed

RePack

fifa19

RePack

RDR2

RePack

NEED FOR SPEED™ PAYBACK

4 сезон

9 сезон

Бесстыжие 9 сезон

Все сериалы

все сериалы на PB.wtf

RePack

FAR CRY 5

Anonymous, доброй ночи, мы катастрофически не успеваем собрать деньги на оплату серверов, помогите нам пожалуйста 5,10,15р., для нас важна любая помощь . В качестве благодарности мы отключим Вам всю рекламу на сайте (укажите свой ник в строку Ваше имя)!

×
  
Magnet ссылка

2199: Космическая одиссея / Space Battleship Yamato (Такаши Ямазаки / Takashi Yamazaki) [2010, фантастика, боевик, драма, приключения, DVD9] R5 «Мистерия Звука» pb.wtf

2199: Космическая одиссея через торрент pb.wtf

Размер: 7.03 GB | Добавлен: 9 лет назад | Торрент скачан:90 раз
Скачать  

23-08-2011 10:00 2199: Космическая одиссея Скачать торрент  


2199: Космическая одиссея / Space Battleship Yamato
«Последняя надежда человечества...»
Страна: Япония
Студия: Abe Shuji, Chubu-nippon Broadcasting Company (CBC), Hakuhodo DY Media Partners, Hokkaido Broadcasting Co. Ltd., J Dream, Mainichi Broadcasting System (MBS) K.K., RKB Mainichi Broadcasting Corporation, Robot Communications, Sedic International, Sedic International Inc., Shogakukan Inc., Tohokushinsha Film Corp., Tokyo Broadcasting System (TBS), Tokyo FM Broadcasting Co. Ltd.
Жанр: фантастика, боевик, драма, приключения
Год выпуска: 2010
Мировая премьера: 1 декабря 2010
Российская премьера: 21 июля 2011, «Кинопром»
Дата выхода DVD: 18 августа 2011, «Мистерия Звука»
Дата выхода Blu-Ray: 18 августа 2011, «Мистерия Звука»
Продолжительность: 02:12:56
Перевод: Профессиональный (дублированный) [Лицензия]
Cубтитры: нет
Режиссер: Такаши Ямазаки / Takashi Yamazaki
В ролях: Такуя Кимура, Меиса Куроки, Такуми Саито, Хироюки Икеучи, Наото Такэнака, Теруюки Кагава, Цутому Ямазаки, Масато Ибу, Шиносуке Ичикава, Тошиюки Нишида
Описание: Космический линкор «Ямато» отправляется в опасную космическую экспедицию. Его цель — планета Искандер, которая является последней надеждой разоренной и отравленной радиацией, планеты Земля. Война с далекими пришельцами не прошла бесследно: бескрайние пустыни и разрушенные города, повсеместные мутации, высокий радиационный уровень атмосферы. Планета Искандер хранит нейтрализатор и только он может помочь нашей Родине…
Бонусы: нет

Качество: DVD9 R5
Формат: DVD-Video
Видео кодек: MPEG2
Аудио кодек: AC3
Видео: PAL 16:9 (720x576(0.644)) MPEG Video, 25,000 кадр/сек, 6682 Кбит/сек
Аудио: Russian (Dolby AC3, 6 ch) 448 Кбит/сек, 48,0 КГц



Title: Рабочий
Size: 7.03 Gb ( 7 373 656 KBytes ) - DVD-9
Enabled regions: 1, 2, 3, 4, 5, 6, 7, 8

VTS_01 :
Play Length: 00:00:16
Video: PAL 16:9 (720x576) VBR, Auto Letterboxed
Audio:
Russian (Dolby AC3, 2 ch)

VTS_02 :
Play Length: 02:12:56
Video: PAL 16:9 (720x576) VBR, Auto Letterboxed
Audio:
Russian (Dolby AC3, 6 ch)

Menu Video:
NTSC 4:3 (720x480) VBR
Auto Pan&Scan, Auto Letterboxed
Menu Russian Language Unit :
Root Menu
Chapter (PTT) Menu
Общее
Полное имя : G:\Новинки 2011\2199.Kosmicheskaja.odisseja.2010.DVD9\VIDEO_TS\VTS_02_1.VOB
Формат : MPEG-PS
Размер файла : 1024 Мбайт
Продолжительность : 19 м.
Общий поток : 7275 Кбит/сек

Видео
Идентификатор : 224 (0xE0)
Формат : MPEG Video
Версия формата : Version 2
Профиль формата : Main@Main
Параметр BVOP формата : Да
Параметр матрицы формата : Выборочная
Продолжительность : 19 м.
Вид битрейта : Переменный
Битрейт : 6682 Кбит/сек
Максимальный битрейт : 8500 Кбит/сек
Ширина : 720 пикселей
Высота : 576 пикселей
Соотношение сторон : 16:9
Частота кадров : 25,000 кадров/сек
Стандарт вещания : PAL
Цветовое пространство : YUV
Субдискретизация насыщенности : 4:2:0
Битовая глубина : 8 бит
Тип развёртки : Прогрессивная
Метод сжатия : С потерями
Бит/(Пиксели*Кадры) : 0.644
Размер потока : 940 Мбайт (92%)

Аудио
Идентификатор : 189 (0xBD)-128 (0x80)
Формат : AC-3
Формат/Информация : Audio Coding 3
Расширение режима : CM (complete main)
Режим смешивания : DVD-Video
Продолжительность : 19 м.
Вид битрейта : Постоянный
Битрейт : 448 Кбит/сек
Каналы : 6 каналов
Расположение каналов : Front: L C R, Side: L R, LFE
Частота : 48,0 КГц
Битовая глубина : 16 бит
Метод сжатия : С потерями
Размер потока : 63,0 Мбайт (6%)










pb.wtf



Скачать 2199: Космическая одиссея через торрент http://i2.imageban.ru/out/2011/08/23/a1d49b554c8615f0bd0cb48af11276ea.jpg Скачать фильм 2199: Космическая одиссея через торрент бесплантно в хорошем качестве Описание: Космический линкор «Ямато» отправляется в опасную космическую экспедицию. Его цель — планета Искандер, которая является последней ... 10 10 1
Info! Золотая раздача, скачанное не засчитывается.
Торрент: Зарегистрирован [2011-08-23 10:00] · скачан: 90 раз
Статус: √ проверено
Размер: 7.03 GB
Как cкачать? Как скачать 2199: Космическая одиссея через торрент | UTorrent

28-11-2019 20:33  

Отключить всю рекламу на сайте


04-09-2011 12:11 2199: Космическая одиссея Скачать торрент  

Круто это супер))))) sarcastic :good:pb.wtf



12-10-2015 06:31 2199: Космическая одиссея Скачать торрент  

Мне оч понравился. Сейчас космические бои не снимают почти.pb.wtf



    Дорогой пользователь! Огромная просьба, поблагодарите релизера, оцените раздачу и оставьте свои комментарий, если Вы скачали 2199: Космическая одиссея через торрент бесплатно! Внесите свою лепту в развитие PiratBit!
    Комментировать посты могут только пользователи прошедшие не сложную регистрацию
    Показать сообщения:    

    2199: Космическая одиссея через торрент
    Скачать бесплатно 2199: Космическая одиссея
    2199: Космическая одиссея скачать торрент
    2199: Космическая одиссея смотреть онлайн
    Cкачать фильм 2199: Космическая одиссея бесплатно
    2199: Космическая одиссея скачать торрент в хорошем качестве
    2199: Космическая одиссея смотреть онлайн бесплатно в хорошем качестве


    Вы не можете начинать темы
    Вы не можете отвечать на сообщения
    Вы не можете редактировать свои сообщения
    Вы не можете удалять свои сообщения
    Вы не можете голосовать в опросах
    Вы не можете прикреплять файлы к сообщениям
    Вы можете скачивать файлы