Ссылка на приватное зеркало нашего сайта всего за 1$. Внимание количество ограничено!!!

2 сезон

iTunes

1 сезон

1

iTunes

iTunes

iTunes

1 сезон

RePack

30

ИГРА 18+

pack

ВАЖНО

!!Акция!!

Alien_RageХит недели

RePack

MK11
pack

Забери бонус

RePack

jed

!!Акция!!

Alien_Rage

RePack

fifa19

RePack

Assassins Creed: Odyssey

RePack

NEED FOR SPEED™ PAYBACK

4 сезон

9 сезон

Бесстыжие 9 сезон

Все сериалы

все сериалы на PB.wtf

RePack

FAR CRY 5
  

Золушка 3 : Злые Чары / Cinderella III: A Twist in Time (Фрэнк Ниссен / Frank Nissen) [2007 г., Мультипликация. Детский, DVDRip] DUB pb.wtf

Золушка 3 : Злые Чары через торрент pb.wtf

Размер: 751 MB | Добавлен: 9 лет 2 мес. назад | Торрент скачан:326 раз
Скачать  

23-08-2011 17:40 Золушка 3 : Злые Чары Скачать торрент  

Золушка 3 : Злые Чары


Год выпуска: 2007.
Страна: США.
Жанр: Мультипликация. Детский.
Продолжительность: 01:10:57.359 (106434 frames).
Перевод: Профессиональный (дублированный)



Режиссер: Фрэнк Ниссен / Frank Nissen.



Золушка, Мачеха, Принц и др.



Описание: Злая мачеха вызывает заклинание, которое уничтожает все что сделала Крестная. Все что она создала (платье, лошади и карета), все с помощью чего Золушка попала на Бал — действует теперь на пользу мачехе и ее дочерям. Теперь, когда волшебство исчезло, будет ли у сказки счастливый конец? Что будет делать Золушка?.




Качество:DVDRip.
Формат: AVI.
Видео кодек: XviD.
Аудио кодек: MP3 .
Видео: XviD 704x400 (1.80:1), 25.000 fps, 1342 kbps avg, 0.19 bit/pixel.
Аудио: MP3 , 48.000 kHz, MPEG Layer 3, 2 ch, 128.00 kbps avg.



скриншот  скриншот  скриншот  
Общее
Полное имя : E:\Мои документы\Андрей\Downloads\Zolushka_3_Zlie_char_[torrents.ru]_by_igor_rogatun.avi
Формат : AVI
Формат/Информация : Audio Video Interleave
Размер файла : 751 Мбайт
Продолжительность : 1 ч. 10 м.
Общий поток : 1480 Кбит/сек
Программа кодирования : VirtualDubMod 1.5.10.2 (build 2540/release)
Библиотека кодирования : VirtualDubMod build 2540/release

Видео
Идентификатор : 0
Формат : MPEG-4 Visual
Профиль формата : Advanced Simple@L5
Параметр BVOP формата : 1
Параметр QPel формата : Нет
Параметр GMC формата : Без точки перехода
Параметр матрицы формата : Default (MPEG)
Идентификатор кодека : XVID
Идентификатор кодека/Подсказка : XviD
Продолжительность : 1 ч. 10 м.
Битрейт : 1343 Кбит/сек
Ширина : 720 пикс.
Высота : 400 пикс.
Соотношение сторон : 16:9
Частота кадров : 25,000 кадр/сек
Цветовое пространство : YUV
Подвыборка цветности : 4:2:0
Битовая глубина : 8 бит
Тип развёртки : Прогрессивная
Метод сжатия : С потерями
Бит/(Пиксели*Кадры) : 0.186
Размер потока : 681 Мбайт (91%)
Библиотека кодирования : XviD 1.2.0.dev47 (UTC 2006-11-01)

Аудио
Идентификатор : 1
Формат : MPEG Audio
Версия формата : Version 1
Профиль формата : Layer 3
Идентификатор кодека : 55
Идентификатор кодека/Подсказка : MP3
Продолжительность : 1 ч. 10 м.
Вид битрейта : Постоянный
Битрейт : 128 Кбит/сек
Каналы : 2 канала
Частота : 48,0 КГц
Метод сжатия : С потерями
Размер потока : 64,9 Мбайт (9%)
Выравнивание : Соединение по промежуткам
Продолжительность промежутка : 40 мс. (1,00 видеокадр)
Время предзагрузки промежутка : 504 ms
Библиотека кодирования : LAME3.97
Настройки программы : -m s -V 4 -q 2 -lowpass 17 -b 128
pb.wtf



Скачать Золушка 3 : Злые Чары через торрент http://s43.radikal.ru/i100/1004/d5/ba18b01182d0.jpg Скачать фильм Золушка 3 : Злые Чары через торрент бесплантно в хорошем качестве Описание: Злая мачеха вызывает заклинание, которое уничтожает все что сделала Крестная. Все что она создала (платье, лошади и карета), все ... 9.5 10 2
Info! Золотая раздача, скачанное не засчитывается.
Торрент: Зарегистрирован [2011-08-23 17:40] · скачан: 326 раз
Статус: √ проверено
Размер: 751 MB
Как cкачать? Как скачать Золушка 3 : Злые Чары через торрент | qTorrent

28-11-2019 20:33  

Отключить всю рекламу на сайте

    Дорогой пользователь! Огромная просьба, поблагодарите релизера, оцените раздачу и оставьте свои комментарий, если Вы скачали Золушка 3 : Злые Чары через торрент бесплатно! Внесите свою лепту в развитие PiratBit!
    Комментировать посты могут только пользователи прошедшие не сложную регистрацию
    Показать сообщения:    

    Золушка 3 : Злые Чары через торрент
    Скачать бесплатно Золушка 3 : Злые Чары
    Золушка 3 : Злые Чары скачать торрент
    Золушка 3 : Злые Чары смотреть онлайн
    Cкачать фильм Золушка 3 : Злые Чары бесплатно
    Золушка 3 : Злые Чары скачать торрент в хорошем качестве
    Золушка 3 : Злые Чары смотреть онлайн бесплатно в хорошем качестве


    Вы не можете начинать темы
    Вы не можете отвечать на сообщения
    Вы не можете редактировать свои сообщения
    Вы не можете удалять свои сообщения
    Вы не можете голосовать в опросах
    Вы не можете прикреплять файлы к сообщениям
    Вы можете скачивать файлы