Ссылка на приватное зеркало нашего сайта всего за 1$. Внимание количество ограничено!!!

2 сезон

iTunes

1 сезон

1

iTunes

iTunes

iTunes

1 сезон

RePack

30

ИГРА 18+

pack

ВАЖНО

!!Акция!!

Alien_RageХит недели

RePack

MK11
pack

Забери бонус

RePack

jed

!!Акция!!

Alien_Rage

RePack

fifa19

RePack

Assassins Creed: Odyssey

RePack

NEED FOR SPEED™ PAYBACK

4 сезон

9 сезон

Бесстыжие 9 сезон

Все сериалы

все сериалы на PB.wtf

RePack

FAR CRY 5
  

Люди Икс: Первый класс / X-Men: First Class (Мэттью Вон) [2011, США, фантастика, боевик, драма, приключения, BDRip 720p] DUB pb.wtf

Люди Икс: Первый класс через торрент pb.wtf

Размер: 8.36 GB | Добавлен: 9 лет 2 мес. назад | Торрент скачан:263 раза
Скачать  

25-08-2011 11:46 Люди Икс: Первый класс Скачать торрент  

Люди Икс: Первый класс / X-Men: First Class
Страна: США
Жанр: фантастика, боевик, драма, приключения
Год выпуска: 2011
Продолжительность: 02:11:43
Перевод: профессиональный (полное дублирование)
Русские субтитры: присутствуют
Режиссер: Мэттью Вон /Matthew Vaughn/
В ролях: Джеймс МакЭвой /James McAvoy/, Майкл Фассбендер /Michael Fassbender/, Роуз Бирн /Rose Byrne/, Дженнифер Лоуренс /Jennifer Lawrence/, Дженьюэри Джонс /January Jones/, Николас Холт /Nicholas Hoult/, Оливер Плэтт /Oliver Platt/, Джейсон Флеминг /Jason Flemyng/, Лукас Тилл /Lucas Till/, Эди Гатеги /Edi Gathegi/, Кевин Бейкон /Kevin Bacon/, Калеб Лэндри Джонс /Caleb Landry Jones/, Зои Кравиц /Zoe Kravitz/, Мэтт Крэвен /Matt Craven/, Алекс Гонзалес /Alex Gonzalez/, Раде Шербеджия /Rade Serbedzija/, Джеймс Римар /James Remar/, Рэй Уайз /Ray Wise/
Описание: Фильм нам расскажет о том, как сформировались профессор Ксавье и Магнито, о процессе основания школы Ксавье для детей-мутантов и, наконец, о том, что же произошло между двумя закадычными друзьями и почему они расстались.
http://www.imdb.com/title/tt1270798/
http://www.kinopoisk.ru/level/1/film/462358/
Тип релиза: BDRip 720p
Контейнер: MKV
Видео: AVC, 1280x544, 6805 kbps, 23.976 fps (HDChina)
Аудио #1: DTS 5.1, 48 kHz, 768 kbps /Русский, Дубляж (R5)/
Аудио #2: DTS 5.1, 48 kHz, 1536 kbps /Английский/
Cубтитры #1: русские (SRT; Форсированные, R5)
Cубтитры #2: русские (SRT; Полные, R5)
Cубтитры #3: английские (SRT; Полные)
Главы: 32 штуки
General
Unique ID : 225029286000532184781014644887125547283 (0xA94B10641702AAF18378167841F8D913)
Complete name : X-Men.First.Class.2011.BDRip.720p.mkv
Format : Matroska
Format version : Version 2
File size : 8.36 GiB
Duration : 2h 11mn
Overall bit rate : 9 085 Kbps
Movie name : X-Men: First Class (2011)
Encoded date : UTC 2011-08-25 11:17:47
Writing application : mkvmerge v4.9.1 ('Ich will') built on Jul 11 2011 23:53:15
Writing library : libebml v1.2.1 + libmatroska v1.1.1
Video
ID : 1
Format : AVC
Format/Info : Advanced Video Codec
Format profile : High@L4.1
Format settings, CABAC : Yes
Format settings, ReFrames : 12 frames
Codec ID : V_MPEG4/ISO/AVC
Duration : 2h 11mn
Bit rate : 6 805 Kbps
Width : 1 280 pixels
Height : 544 pixels
Display aspect ratio : 2.35:1
Frame rate : 23.976 fps
Color space : YUV
Chroma subsampling : 4:2:0
Bit depth : 8 bits
Scan type : Progressive
Bits/(Pixel*Frame) : 0.408
Stream size : 6.11 GiB (73%)
Title : AVC, 1280x544, 6805 kbps, 23.976 fps (HDChina)
Writing library : x264 core 116 r2037 f8ebd4a
Encoding settings : cabac=1 / ref=12 / deblock=1:-3:-2 / analyse=0x3:0x133 / me=umh / subme=10 / psy=1 / psy_rd=0.90:0.05 / mixed_ref=1 / me_range=32 / chroma_me=1 / trellis=2 / 8x8dct=1 / cqm=0 / deadzone=21,11 / fast_pskip=0 / chroma_qp_offset=-3 / threads=9 / sliced_threads=0 / nr=0 / decimate=0 / interlaced=0 / bluray_compat=0 / constrained_intra=0 / bframes=6 / b_pyramid=2 / b_adapt=2 / b_bias=0 / direct=3 / weightb=1 / open_gop=0 / weightp=2 / keyint=360 / keyint_min=2 / scenecut=40 / intra_refresh=0 / rc_lookahead=50 / rc=2pass / mbtree=1 / bitrate=6805 / ratetol=1.0 / qcomp=0.70 / qpmin=0 / qpmax=69 / qpstep=4 / cplxblur=20.0 / qblur=0.5 / vbv_maxrate=50000 / vbv_bufsize=30000 / nal_hrd=none / ip_ratio=1.40 / aq=2:1.00
Language : English
Audio #1
ID : 2
Format : DTS
Format/Info : Digital Theater Systems
Codec ID : A_DTS
Duration : 2h 11mn
Bit rate mode : Constant
Bit rate : 755 Kbps
Channel(s) : 6 channels
Channel positions : Front: L C R, Side: L R, LFE
Sampling rate : 48.0 KHz
Bit depth : 24 bits
Compression mode : Lossy
Stream size : 711 MiB (8%)
Title : DTS 5.1, 48 kHz, 768 kbps: Дубляж (R5)
Language : Russian
Audio #2
ID : 3
Format : DTS
Format/Info : Digital Theater Systems
Codec ID : A_DTS
Duration : 2h 11mn
Bit rate mode : Constant
Bit rate : 1 510 Kbps
Channel(s) : 6 channels
Channel positions : Front: L C R, Side: L R, LFE
Sampling rate : 48.0 KHz
Bit depth : 24 bits
Compression mode : Lossy
Stream size : 1.39 GiB (17%)
Title : DTS 5.1, 48 kHz, 1536 kbps
Language : English
Text #1
ID : 4
Format : UTF-8
Codec ID : S_TEXT/UTF8
Codec ID/Info : UTF-8 Plain Text
Title : Форсированные, R5
Language : Russian
Text #2
ID : 5
Format : UTF-8
Codec ID : S_TEXT/UTF8
Codec ID/Info : UTF-8 Plain Text
Title : Полные, R5
Language : Russian
Text #3
ID : 6
Format : UTF-8
Codec ID : S_TEXT/UTF8
Codec ID/Info : UTF-8 Plain Text
Title : Полные
Language : English
Menu
00:00:00.000 : en:Chapter.01
00:04:21.552 : en:Chapter.02
00:09:33.155 : en:Chapter.03
00:14:03.425 : en:Chapter.04
00:16:08.175 : en:Chapter.05
00:22:10.829 : en:Chapter.06
00:27:11.046 : en:Chapter.07
00:28:46.349 : en:Chapter.08
00:31:32.891 : en:Chapter.09
00:36:07.540 : en:Chapter.10
00:40:12.660 : en:Chapter.11
00:44:16.487 : en:Chapter.12
00:50:05.752 : en:Chapter.13
00:54:00.862 : en:Chapter.14
01:01:07.413 : en:Chapter.15
01:08:17.927 : en:Chapter.16
01:11:51.098 : en:Chapter.17
01:14:06.525 : en:Chapter.18
01:20:07.052 : en:Chapter.19
01:23:43.226 : en:Chapter.20
01:27:35.833 : en:Chapter.21
01:28:51.242 : en:Chapter.22
01:31:24.979 : en:Chapter.23
01:33:33.899 : en:Chapter.24
01:37:54.410 : en:Chapter.25
01:39:55.197 : en:Chapter.26
01:43:37.961 : en:Chapter.27
01:47:44.166 : en:Chapter.28
01:52:38.460 : en:Chapter.29
01:56:44.622 : en:Chapter.30
02:01:26.696 : en:Chapter.31
02:04:24.248 : en:Chapter.32
pb.wtf



Скачать Люди Икс: Первый класс через торрент http://i25.fastpic.ru/big/2011/0805/09/c535e2bd9ab821993eb6d24967a46009.jpg Скачать фильм Люди Икс: Первый класс через торрент бесплантно в хорошем качестве Описание: Фильм нам расскажет о том, как сформировались профессор Ксавье и Магнито, о процессе основания школы Ксавье для детей-мутантов и, ... 10 10 3
Info! Золотая раздача, скачанное не засчитывается.
Торрент: Зарегистрирован [2011-08-25 11:46] · скачан: 263 раз
Статус: √ проверено
Размер: 8.36 GB
Как cкачать? Как скачать Люди Икс: Первый класс через торрент | qTorrent

% Раздел Тема Автор DL S | L
Ultra HD (UHD: 2K, 4K, 8K) — видео сверхвысокой чёткости [ 45.73 GB ] Люди Икс: Первый класс / X-Men: First Class [2011 UHD BDRemux 2160p] DUB +2xAVO bober100 Скачать
1 | 0
Фильмы 2011 [ 1.45 GB ] Люди Икс: Первый класс / X-Men: First Class [2011 DVDRip] DUB + Sub rus L_E_X Скачать
1 | 0


Последний раз редактировалось: Shmel (2011-08-25 12:17), всего редактировалось 1 раз

28-11-2019 20:33  

Отключить всю рекламу на сайте

    Дорогой пользователь! Огромная просьба, поблагодарите релизера, оцените раздачу и оставьте свои комментарий, если Вы скачали Люди Икс: Первый класс через торрент бесплатно! Внесите свою лепту в развитие PiratBit!
    Комментировать посты могут только пользователи прошедшие не сложную регистрацию
    Показать сообщения:    

    Люди Икс: Первый класс через торрент
    Скачать бесплатно Люди Икс: Первый класс
    Люди Икс: Первый класс скачать торрент
    Люди Икс: Первый класс смотреть онлайн
    Cкачать фильм Люди Икс: Первый класс бесплатно
    Люди Икс: Первый класс скачать торрент в хорошем качестве
    Люди Икс: Первый класс смотреть онлайн бесплатно в хорошем качестве


    Вы не можете начинать темы
    Вы не можете отвечать на сообщения
    Вы не можете редактировать свои сообщения
    Вы не можете удалять свои сообщения
    Вы не можете голосовать в опросах
    Вы не можете прикреплять файлы к сообщениям
    Вы можете скачивать файлы