2 сезон

iTunes

MVO

1

2 сезон

iTunes

iTunes

1 сезон

RePack

30

Новинка

ВАЖНО

ИГРА 18+

pack

RePack

MK11
pack

Легкие деньги

RePack

jed

RePack

fifa19

RePack

RDR2

RePack

NEED FOR SPEED™ PAYBACK

4 сезон

9 сезон

Бесстыжие 9 сезон

Все сериалы

все сериалы на PB.wtf

RePack

FAR CRY 5

Anonymous, добрый вечер, мы не успеваем собрать деньги на оплату серверов за декабрь и январь, помогите нам пожалуйста в это трудное время. В качестве благодарности мы отключим Вам всю рекламу на сайте (укажите свой ник в строку Ваше имя)!

×
  
Magnet ссылка

Deus Ex: Human Revolution Bonus Disc [Бонусный DVD из Augmented Edition, DVD5, 2011 г. Sub-RUS] pb.wtf

Deus Ex: Human Revolution Bonus Disc через торрент pb.wtf

Размер: 4.11 GB | Добавлен: 9 лет 4 мес. назад | Торрент скачан:15 раз
Скачать  

25-08-2011 14:14 Deus Ex: Human Revolution Bonus Disc Скачать торрент  

Deus Ex: Human Revolution Bonus Disc [Бонусный DVD из Augmented Edition, DVD5] [Sub-RUS /Eng]

Год выпуска: 2011
Жанр: Bonus Disc
Продолжительность: 44:31

Описание: Эксклюзивный бонусный DVD включает в себя:

44-минутное видео c разработчиками о создании игры
Официальный Саундтрек
Видеокомикс
Трейлеры
Анимированная раскадровка

Качество: DVD5
Формат: MPEG
Видео кодек: MPEG1
Аудио кодек: AC3
Видео: 720x576, 25 кадров/с, 6178 kb\s
Аудио: AC3, 192 Kb/s, 2 канала
Видео
Идентификатор : 224 (0xE0)
Формат : MPEG Video
Версия формата : Version 2
Профиль формата : Main@Main
Параметр BVOP формата : Да
Параметр матрицы формата : Выборочная
Продолжительность : 22 м.
Вид битрейта : Переменный
Битрейт : 6176 Кбит/сек
Ширина : 720 пикс.
Высота : 576 пикс.
Соотношение сторон : 16:9
Частота кадров : 25,000 кадр/сек
Стандарт вещания : PAL
Цветовое пространство : YUV
Подвыборка цветности : 4:2:0
Битовая глубина : 8 бит
Тип развёртки : Чересстрочная
Порядок развёртки : Верхнее поле первое
Метод сжатия : С потерями
Бит/(Пиксели*Кадры) : 0.596
Размер потока : 973 Мбайт (95%)

Аудио
Идентификатор : 189 (0xBD)-128 (0x80)
Формат : AC-3
Формат/Информация : Audio Coding 3
Расширение режима : CM (complete main)
Режим смешивания : DVD-Video
Продолжительность : 22 м.
Вид битрейта : Постоянный
Битрейт : 192 Кбит/сек
Каналы : 2 канала
Расположение каналов : Front: L R
Частота : 48,0 КГц
Битовая глубина : 16 бит
Метод сжатия : С потерями
Размер потока : 30,3 Мбайт (3%)
pb.wtf



Скачать Deus Ex: Human Revolution Bonus Disc через торрент http://i25.fastpic.ru/big/2011/0825/08/d18cc9bb20e4463db2bbe0af619bbb08.jpg Скачать фильм Deus Ex: Human Revolution Bonus Disc [Бонусный DVD из Augmented Edition, DVD5, 2011 г. Sub-RUS]через торрент бесплантно в хорошем качестве Описание: Эксклюзивный бонусный DVD включает в себя:44-минутное видео c разработчиками о создании игрыОфициальный ... 5 10 4
Info! Золотая раздача, скачанное не засчитывается.
Торрент: Зарегистрирован [2011-08-25 14:14] · скачан: 15 раз
Статус: √ проверено
Размер: 4.11 GB
Как cкачать? Как скачать Deus Ex: Human Revolution Bonus Disc через торрент | UTorrent

28-11-2019 20:33  

Отключить всю рекламу на сайте

04-08-2012 17:26 Deus Ex: Human Revolution Bonus Disc Скачать торрент  

Спасибо автору давно искалpb.wtf



    Дорогой пользователь! Огромная просьба, поблагодарите релизера, оцените раздачу и оставьте свои комментарий, если Вы скачали Deus Ex: Human Revolution Bonus Disc через торрент бесплатно! Внесите свою лепту в развитие PiratBit!
    Комментировать посты могут только пользователи прошедшие не сложную регистрацию
    Показать сообщения:    

    Deus Ex: Human Revolution Bonus Disc через торрент
    Скачать бесплатно Deus Ex: Human Revolution Bonus Disc
    Deus Ex: Human Revolution Bonus Disc скачать торрент
    Deus Ex: Human Revolution Bonus Disc смотреть онлайн
    Cкачать фильм Deus Ex: Human Revolution Bonus Disc бесплатно
    Deus Ex: Human Revolution Bonus Disc скачать торрент в хорошем качестве
    Deus Ex: Human Revolution Bonus Disc смотреть онлайн бесплатно в хорошем качестве


    Вы не можете начинать темы
    Вы не можете отвечать на сообщения
    Вы не можете редактировать свои сообщения
    Вы не можете удалять свои сообщения
    Вы не можете голосовать в опросах
    Вы не можете прикреплять файлы к сообщениям
    Вы можете скачивать файлы