1 сезон

3 сезон

iTunes

1

iTunes

MVO

iTunes

13

1 сезон

RePack

30

Deluxe

pack

Лицензия

ВАЖНО

ИГРА 18+

pack

RePack

MK11

RePack

jed

RePack

fifa19

RePack

RDR2

RePack

NEED FOR SPEED™ PAYBACK

4 сезон

9 сезон

Бесстыжие 9 сезон

Все сериалы

все сериалы на PB.wtf

RePack

FAR CRY 5

Anonymous, добрый вечер, мы катастрофически не успеваем собрать деньги на оплату серверов, помогите нам пожалуйста 5,10,15р., для нас важна любая помощь . В качестве благодарности мы отключим Вам всю рекламу на сайте (укажите свой ник в строку Ваше имя)!

×
  
Magnet ссылка

Кошмар за стеной / Derriere les murs (Жюльен Лякомб, Паскаль Сид / Julien Lacombe, Pascal Sid) [2011, ужасы, триллер, драма, детектив, DVD9] R5 «Флагман-Трейд» pb.wtf

Кошмар за стеной через торрент pb.wtf

Размер: 5.19 GB | Добавлен: 9 лет назад | Торрент скачан:33 раза
Скачать  

25-08-2011 21:24 Кошмар за стеной Скачать торрент  


Кошмар за стеной / Derriere les murs
Страна: Франция
Студия: Appaloosa Films, Banque Populaire Images 11, Canal+ [fr],Centre National de la Cinématographie (CNC), Ciné, Département de la Vienne, Orange Cinéma Séries, Région Auvergne, Région Poitou-Charentes, Sombrero Films, Sombrero Productions, Uni Étoile 8
Жанр: Ужасы, триллер, драма, детектив
Год выпуска: 2011
Мировая премьера: 4 июля 2011
Российская премьера: 21 июля 2011, «Люксор» 3D
Дата выхода DVD: 25 августа 2011, «Флагман-Трейд»
Продолжительность: 1:22:46
Перевод: Профессиональный (дублированный) [Лицензия]
Cубтитры: нет
Оригинальная аудиодорожка: английский
Режиссер: Жюльен Лякомб, Паскаль Сид / Julien Lacombe, Pascal Sid
В ролях: Летиция Каста, Тьерри Новик, Жак Боннаффе, Роже Дюма, Анн Бенуа, Энн Лорье, Emma Ninucci, Чарлин Пол, Матильда Толлерон...
Описание: Центральная Франция, 1922 год. Сюзанна, молодая писательница, ищет вдохновения для новой книги, уединившись в загородном доме. Исследуя особняк, она находит потайную комнату в подвале. Женщину начинают преследовать кошмары и видения, вдобавок ее присутствие заставляет нервничать местных жителей: вскоре в деревне мистическим образом начинают исчезать маленькие девочки…

Бонусы: нет

Релиз группы:
Качество: DVD9 R5
Формат: DVD-Video
Видео кодек: MPEG2
Аудио кодек: AC3
Видео: PAL 16:9 (720x576(0.771)) MPEG Video, 25,000 кадр/сек, 7991 Кбит/сек
Аудио #1: Russian (Dolby AC3, 6 ch) 384 Кбит/сек, 48,0 КГц
Аудио #2: English (Dolby AC3, 2 ch) 192 Кбит/сек, 48,0 КГц



Title:
Size: 5.19 Gb ( 5 438 608 KBytes ) - DVD-9
Enabled regions: 1, 2, 3, 4, 5, 6

VTS_01 :
Play Length: 00:00:19
Video: PAL 4:3 (720x576) VBR
Audio:
Russian (Dolby AC3, 2 ch)

VTS_02 :
Play Length: 01:22:47
Video: PAL 16:9 (720x576) VBR, Auto Pan&Scan
Audio:
Russian (Dolby AC3, 6 ch)
English (Dolby AC3, 2 ch)
Общее
Полное имя : F:\Jolly Roger\Kowmar za stenoi.2011.DVD-9.JRG\VTS_02_2.VOB
Формат : MPEG-PS
Размер файла : 1024 Мбайт
Продолжительность : 16 м.
Общий поток : 8741 Кбит/сек

Видео
Идентификатор : 224 (0xE0)
Формат : MPEG Video
Версия формата : Version 2
Профиль формата : Main@Main
Параметр BVOP формата : Да
Параметр матрицы формата : Выборочная
Параметры GOP формата : M=3, N=12
Продолжительность : 16 м.
Вид битрейта : Переменный
Битрейт : 7991 Кбит/сек
Номинальный битрейт : 9800 Кбит/сек
Ширина : 720 пикс.
Высота : 576 пикс.
Соотношение сторон : 16:9
Частота кадров : 25,000 кадр/сек
Стандарт вещания : PAL
Цветовое пространство : YUV
Подвыборка цветности : 4:2:0
Битовая глубина : 8 бит
Тип развёртки : Чересстрочная
Порядок развёртки : Верхнее поле первое
Метод сжатия : С потерями
Бит/(Пиксели*Кадры) : 0.771
Размер потока : 936 Мбайт (91%)

Аудио #1
Идентификатор : 189 (0xBD)-128 (0x80)
Формат : AC-3
Формат/Информация : Audio Coding 3
Расширение режима : CM (complete main)
Режим смешивания : DVD-Video
Продолжительность : 16 м.
Вид битрейта : Постоянный
Битрейт : 384 Кбит/сек
Каналы : 6 каналов
Расположение каналов : Front: L C R, Side: L R, LFE
Частота : 48,0 КГц
Битовая глубина : 16 бит
Метод сжатия : С потерями
Задержка видео : -664 мс.
Размер потока : 45,0 Мбайт (4%)

Аудио #2
Идентификатор : 189 (0xBD)-129 (0x81)
Формат : AC-3
Формат/Информация : Audio Coding 3
Расширение режима : CM (complete main)
Режим смешивания : DVD-Video
Продолжительность : 16 м.
Вид битрейта : Постоянный
Битрейт : 192 Кбит/сек
Каналы : 2 канала
Расположение каналов : Front: L R
Частота : 48,0 КГц
Битовая глубина : 16 бит
Метод сжатия : С потерями
Задержка видео : -632 мс.
Размер потока : 22,5 Мбайт (2%)










pb.wtf



Скачать Кошмар за стеной через торрент http://i3.imageban.ru/out/2011/08/25/2bd5be98e3a8ec84368e4d81277edcee.jpg Скачать фильм Кошмар за стеной через торрент бесплантно в хорошем качестве Описание: Центральная Франция, 1922 год. Сюзанна, молодая писательница, ищет вдохновения для новой книги, уединившись в загородном доме. ... 4.8 10 6
Info! Золотая раздача, скачанное не засчитывается.
Торрент: Зарегистрирован [2011-08-25 21:24] · скачан: 33 раз
Статус: √ проверено
Размер: 5.19 GB
Как cкачать? Как скачать Кошмар за стеной через торрент | UTorrent

28-11-2019 20:33  

Отключить всю рекламу на сайте

25-08-2011 23:42 Кошмар за стеной Скачать торрент  

как фильм ребята, отпишитесь кто смотрел?pb.wtf



    Дорогой пользователь! Огромная просьба, поблагодарите релизера, оцените раздачу и оставьте свои комментарий, если Вы скачали Кошмар за стеной через торрент бесплатно! Внесите свою лепту в развитие PiratBit!
    Комментировать посты могут только пользователи прошедшие не сложную регистрацию
    Показать сообщения:    

    Кошмар за стеной через торрент
    Скачать бесплатно Кошмар за стеной
    Кошмар за стеной скачать торрент
    Кошмар за стеной смотреть онлайн
    Cкачать фильм Кошмар за стеной бесплатно
    Кошмар за стеной скачать торрент в хорошем качестве
    Кошмар за стеной смотреть онлайн бесплатно в хорошем качестве


    Вы не можете начинать темы
    Вы не можете отвечать на сообщения
    Вы не можете редактировать свои сообщения
    Вы не можете удалять свои сообщения
    Вы не можете голосовать в опросах
    Вы не можете прикреплять файлы к сообщениям
    Вы можете скачивать файлы