Всегда рабочее зеркало без VPN и Proxy просто перед .vidak.icu напиши любое слово или цифру, Пример http://thwj.vidak.icu

Лицензия

MVO

1 сезон

1

1 сезон

iTunes

1 сезон

13

1 сезон

Deluxe

pack

Рекомендуем

Repack

30

ВАЖНО

RePack

MK11

RePack

jed

RePack

fifa19

RePack

RDR2

RePack

NEED FOR SPEED™ PAYBACK

Кинопоиск HD

6 сезон

 Острые козырьки 6 сезон

Все сериалы

все сериалы на PB.wtf

RePack

FAR CRY 5
  
Magnet ссылка

Бэтмэн: Рыцарь Готэма / Batman: Gotham Knight (Ясухиро Аоки) [2008 г., Аниме, боевик., DVDRip] pb.wtf

Бэтмэн: Рыцарь Готэма через торрент pb.wtf

Размер: 1.37 GB | Добавлен: 10 лет назад | Торрент скачан:297 раз
Смотреть онлайн Бэтмэн: Рыцарь Готэма | Скачать    Ребята, помогите собрать деньги на оплату серверов!!!

26-08-2011 15:00 Бэтмэн: Рыцарь Готэма Скачать торрент  

Бэтмэн: Рыцарь Готэма / Batman: Gotham Knight


Год выпуска: 2008.
Страна: США / Япония.
Жанр: Аниме, боевик.
Продолжительность: 01:15:58.
Перевод: Любительский (двухголосый) + Оригинал (Английский)



Режиссер: Ясухиро Аоки.



Кевин Конрой, Гари Дурдан, Дэвид МакКаллум, Кори Бертон, Уилл Фридл, Брайан Джордж, Джейсон Мэрсден.



Описание: Шесть глав фильма рассказывают историю Брюса Вейна о его превращении в блюстителя закона в кишащем насилием городе. Действия фильма предшествуют новой серии Бэтмена, под названием "Тёмный Рыцарь".




Качество: DVDRip.
Контейнер: AVI.
Видео кодек: XviD.
Аудио кодек: AC3.
Видео: 704x384 (1.83:1), 23.976 fps, XviD MPEG-4 ~120 kbps avg, 0.02 bit/pixel.
Аудио № 1 (Rus): 48 kHz, AC3 Dolby Digital, 3/2 (L,C,R,l,r) + LFE ch, ~384.00 kbps avg.
Аудио № 2 (Eng): 48 kHz, AC3 Dolby Digital, 3/2 (L,C,R,l,r) + LFE ch, ~384.00 kbps avg.


скриншот  скриншот  скриншот  скриншот  

Код:

Общее
Полное имя                       : E:\Мои документы\Андрей\Downloads\Krysa.rycar.gotema.2008.L2.DVDRip_PUZKARAPUZ.avi
Формат                           : AVI
Формат/Информация                : Audio Video Interleave
Размер файла                     : 1,37 Гбайт
Продолжительность                : 1 ч. 15 м.
Общий поток                      : 2576 Кбит/сек
Программа кодирования            : VirtualDubMod 1.5.10.2 (build 2540/release)
Библиотека кодирования           : VirtualDubMod build 2540/release

Видео
Идентификатор                    : 0
Формат                           : MPEG-4 Visual
Профиль формата                  : Advanced [email protected]
Параметр BVOP формата            : 2
Параметр QPel формата            : Нет
Параметр GMC формата             : Без точки перехода
Параметр матрицы формата         : Default (MPEG)
Режим смешивания                 : Сжатый битовый поток
Идентификатор кодека             : XVID
Идентификатор кодека/Подсказка   : XviD
Продолжительность                : 1 ч. 15 м.
Битрейт                          : 1795 Кбит/сек
Ширина                           : 704 пикс.
Высота                           : 384 пикс.
Соотношение сторон               : 16:9
Частота кадров                   : 23,976 кадр/сек
Цветовое пространство            : YUV
Подвыборка цветности             : 4:2:0
Битовая глубина                  : 8 бит
Тип развёртки                    : Прогрессивная
Метод сжатия                     : С потерями
Бит/(Пиксели*Кадры)              : 0.277
Размер потока                    : 975 Мбайт (70%)
Библиотека кодирования           : XviD 1.2.0.dev47 (UTC 2006-11-01)

Аудио #1
Идентификатор                    : 1
Формат                           : AC-3
Формат/Информация                : Audio Coding 3
Расширение режима                : CM (complete main)
Идентификатор кодека             : 2000
Продолжительность                : 1 ч. 15 м.
Вид битрейта                     : Постоянный
Битрейт                          : 384 Кбит/сек
Каналы                           : 6 каналов
Расположение каналов             : Front: L C R, Side: L R, LFE
Частота                          : 48,0 КГц
Битовая глубина                  : 16 бит
Метод сжатия                     : С потерями
Размер потока                    : 209 Мбайт (15%)
Выравнивание                     : Разделение по промежуткам
Продолжительность промежутка     : 42  мс. (1,00 видеокадр)
Время предзагрузки промежутка    : 500 ms

Аудио #2
Идентификатор                    : 2
Формат                           : AC-3
Формат/Информация                : Audio Coding 3
Расширение режима                : CM (complete main)
Идентификатор кодека             : 2000
Продолжительность                : 1 ч. 15 м.
Вид битрейта                     : Постоянный
Битрейт                          : 384 Кбит/сек
Каналы                           : 6 каналов
Расположение каналов             : Front: L C R, Side: L R, LFE
Частота                          : 48,0 КГц
Битовая глубина                  : 16 бит
Метод сжатия                     : С потерями
Размер потока                    : 209 Мбайт (15%)
Выравнивание                     : Разделение по промежуткам
Продолжительность промежутка     : 42  мс. (1,00 видеокадр)
Время предзагрузки промежутка    : 500 ms

pb.wtf



Скачать Бэтмэн: Рыцарь Готэма через торрент http://i068.radikal.ru/0807/36/e4a88b3c6e41.jpg Скачать, смотреть онлайн Бэтмэн: Рыцарь Готэма бесплантно в хорошем качестве Описание: Шесть глав фильма рассказывают историю Брюса Вейна о его превращении в блюстителя закона в кишащем насилием городе. Действия ... 10 10 2
Info! Золотая раздача, скачанное не засчитывается.
Торрент: Зарегистрирован [2011-08-26 15:00] · скачан: 297 раз
Статус: √ проверено
Размер: 1.37 GB
Как cкачать? Как скачать Бэтмэн: Рыцарь Готэма через торрент | UTorrent



Последний раз редактировалось: ACFIORENTINA (2011-08-26 15:09), всего редактировалось 1 раз

28-11-2019 20:33  

Отключить вcю реклaмy на сайте

26-08-2011 15:03 Бэтмэн: Рыцарь Готэма Скачать торрент  

Цитата:

А почему мульт здесь, а не в разделе ''аниме''?

Во-первых, мульт сделан в США, хотя и японцами, во-вторых, тысячи людей не будут знать, что такой мульт существует, если поместить в аниме.pb.wtf



12-12-2011 09:09 Бэтмэн: Рыцарь Готэма Скачать торрент  

Вообщето это Аниме и помещать его в раздел мультиков глупо . рисовка японская. ну видно же невооружённым глазом к тому же я Анимешник .pb.wtf



21-12-2011 14:04 Бэтмэн: Рыцарь Готэма Скачать торрент  

спс, гляну на работе на телефоне)))pb.wtf



    Дорогой пользователь! Огромная просьба, поблагодарите релизера, оцените раздачу и оставьте свои комментарий, если Вы скачали Бэтмэн: Рыцарь Готэма через торрент бесплатно!
    Комментировать посты могут только пользователи прошедшие не сложную регистрацию
    Показать сообщения:    

    Бэтмэн: Рыцарь Готэма через торрент
    Скачать бесплатно Бэтмэн: Рыцарь Готэма
    Бэтмэн: Рыцарь Готэма скачать торрент
    Бэтмэн: Рыцарь Готэма смотреть онлайн
    Cкачать фильм Бэтмэн: Рыцарь Готэма бесплатно
    Бэтмэн: Рыцарь Готэма скачать торрент в хорошем качестве
    Бэтмэн: Рыцарь Готэма смотреть онлайн бесплатно в хорошем качестве


    Вы не можете начинать темы
    Вы не можете отвечать на сообщения
    Вы не можете редактировать свои сообщения
    Вы не можете удалять свои сообщения
    Вы не можете голосовать в опросах
    Вы не можете прикреплять файлы к сообщениям
    Вы можете скачивать файлы