Ссылка на приватное зеркало нашего сайта всего за 1$. Внимание количество ограничено!!!

2 сезон

iTunes

1 сезон

1

iTunes

iTunes

iTunes

1 сезон

RePack

30

ИГРА 18+

pack

ВАЖНО

!!Акция!!

Alien_RageХит недели

RePack

MK11
pack

Забери бонус

RePack

jed

!!Акция!!

Alien_Rage

RePack

fifa19

RePack

Assassins Creed: Odyssey

RePack

NEED FOR SPEED™ PAYBACK

4 сезон

9 сезон

Бесстыжие 9 сезон

Все сериалы

все сериалы на PB.wtf

RePack

FAR CRY 5
  

Ранго / Rango [Расширенная версия / Extended Cut] (Гор Вербински / Mountains Verbinski) [2011, мультфильм, BDRip] 1.45 gb pb.wtf

Ранго через торрент pb.wtf

Размер: 1.46 GB | Добавлен: 9 лет 1 мес. назад | Торрент скачан:1586 раз
Скачать  

26-08-2011 17:05 Ранго Скачать торрент  

Ранго / Rango


Год выпуска: 2011.
Страна: США.
Жанр: мультфильм.
Продолжительность: 01:51:50.
Перевод: Дублированное [Лицензия]



Режиссер: Гор Вербински / Mountains Verbinski.



Джонни Депп, Айла Фишер, Эбигейл Бреслин, Нед Битти, Альфред Молина, Билл Найи, Стивен Рут, Гарри Ди,н Стэнтон, Тимоти Олифант, Рэй Уинстоун.



Описание: Ранго — хамелеон, который живет в террариуме и считает себя героем, которому, к сожалению, никак не удается проявить свое бесстрашие. Но когда он внезапно оказывается в городке Грязь, у него появляется такая возможность. Ранго провозглашает себя борцом за справедливость и начинает вести себя как шериф на Диком Западе. Он еще не знает, что быть «хорошим парнем» в этих краях не самая завидная участь….




Качество: BDRip [Рип с Blu-Ray].
Контейнер: AVI.
Видео кодек: XviD.
Аудио кодек: AC3.
Видео: MPEG4, XviD, 720x304 (2.35), 23.976 fps, 1 475 Kbps (0.281 bit/pixel).
Аудио: AC-3, 48.0 KHz, 6 ch, 384 Kbps, CBR.


скриншот  скриншот  скриншот  скриншот  

Код:

Общее
Полное имя                       : E:\Мои документы\Андрей\Downloads\Rango.EX.2011.D.BDRip_Smallrip.avi
Формат                           : AVI
Формат/Информация                : Audio Video Interleave
Размер файла                     : 1,46 Гбайт
Продолжительность                : 1 ч. 51 м.
Общий поток                      : 1869 Кбит/сек
Название фильма                  : Rango.EX.2011.D.BDRip_Smallrip.Com.avi
Режиссёр                         : smallz
Программа кодирования            : VirtualDubMod 1.5.10.3 | www.virtualdub-fr.org || (build 2550/release)
Библиотека кодирования           : VirtualDubMod build 2550/release
Правообладатель                  : http://smallrip.com/

Видео
Идентификатор                    : 0
Формат                           : MPEG-4 Visual
Профиль формата                  : Advanced Simple@L5
Параметр BVOP формата            : 1
Параметр QPel формата            : Нет
Параметр GMC формата             : Без точки перехода
Параметр матрицы формата         : Выборочная
Идентификатор кодека             : XVID
Идентификатор кодека/Подсказка   : XviD
Продолжительность                : 1 ч. 51 м.
Битрейт                          : 1475 Кбит/сек
Ширина                           : 720 пикс.
Высота                           : 304 пикс.
Соотношение сторон               : 2,35:1
Частота кадров                   : 23,976 кадр/сек
Цветовое пространство            : YUV
Подвыборка цветности             : 4:2:0
Битовая глубина                  : 8 бит
Тип развёртки                    : Прогрессивная
Метод сжатия                     : С потерями
Бит/(Пиксели*Кадры)              : 0.281
Размер потока                    : 1,15 Гбайт (79%)
Библиотека кодирования           : XviD 1.2.1 (UTC 2008-12-04)

Аудио
Идентификатор                    : 1
Формат                           : AC-3
Формат/Информация                : Audio Coding 3
Расширение режима                : CM (complete main)
Идентификатор кодека             : 2000
Продолжительность                : 1 ч. 51 м.
Вид битрейта                     : Постоянный
Битрейт                          : 384 Кбит/сек
Каналы                           : 6 каналов
Расположение каналов             : Front: L C R, Side: L R, LFE
Частота                          : 48,0 КГц
Битовая глубина                  : 16 бит
Метод сжатия                     : С потерями
Размер потока                    : 307 Мбайт (21%)
Выравнивание                     : Разделение по промежуткам
Продолжительность промежутка     : 42  мс. (1,00 видеокадр)
Время предзагрузки промежутка    : 500 ms

Оформление by ACFIORENTINA vs Resident1948 pb.wtf



Скачать Ранго через торрент http://img23.binimage.org/ba/95/e1/rango_smallrip.com.jpg Скачать фильм Ранго через торрент бесплантно в хорошем качестве Описание: Ранго — хамелеон, который живет в террариуме и считает себя героем, которому, к сожалению, никак не удается проявить свое ... 8.8 10 12
Info! Золотая раздача, скачанное не засчитывается.
Торрент: Зарегистрирован [2011-08-26 17:05] · скачан: 1 586 раз
Статус: √ проверено
Размер: 1.46 GB
Как cкачать? Как скачать Ранго через торрент | qTorrent



Последний раз редактировалось: ACFIORENTINA (2011-08-29 20:15), всего редактировалось 1 раз

28-11-2019 20:33  

Отключить всю рекламу на сайте

26-08-2011 18:27 Ранго Скачать торрент  

спасибоpb.wtf



26-08-2011 18:45 Ранго Скачать торрент  

Спасибо !!! :good2:pb.wtf



26-08-2011 19:17 Ранго Скачать торрент  

Из кино новинок(мультов) "Ранго" поставил бы на 3е место,после "Шрека" и "Рапунцель" pb.wtf





Последний раз редактировалось: ACFIORENTINA (2011-08-26 19:24), всего редактировалось 1 раз

26-08-2011 19:25 Ранго Скачать торрент  

тупикин,TFSI
Без флуда попрошу!иначе дам предpb.wtf



22-09-2011 14:59 Ранго Скачать торрент  

На любителя.
Порадовало: Гор Вербински / Mountains Verbinski
pb.wtf



27-09-2011 16:17 Ранго Скачать торрент  

Довольно интересный мульт,очень понравился,рекомендую)pb.wtf



19-01-2012 13:58 Ранго Скачать торрент  

почему не могу скачать. отказано в доступе!!!!что делать?pb.wtf



17-02-2012 20:13 Ранго Скачать торрент  

ВалериВел писал(а):

почему не могу скачать. отказано в доступе!!!!что делать?

У меня всё норм)))pb.wtf



03-05-2016 05:44 Ранго Скачать торрент  

По ящику дублированый хреново...качаю ...спсб.pb.wtf



    Дорогой пользователь! Огромная просьба, поблагодарите релизера, оцените раздачу и оставьте свои комментарий, если Вы скачали Ранго через торрент бесплатно! Внесите свою лепту в развитие PiratBit!
    Комментировать посты могут только пользователи прошедшие не сложную регистрацию
    Показать сообщения:    

    Ранго через торрент
    Скачать бесплатно Ранго
    Ранго скачать торрент
    Ранго смотреть онлайн
    Cкачать фильм Ранго бесплатно
    Ранго скачать торрент в хорошем качестве
    Ранго смотреть онлайн бесплатно в хорошем качестве


    Вы не можете начинать темы
    Вы не можете отвечать на сообщения
    Вы не можете редактировать свои сообщения
    Вы не можете удалять свои сообщения
    Вы не можете голосовать в опросах
    Вы не можете прикреплять файлы к сообщениям
    Вы можете скачивать файлы