1 сезон

3 сезон

iTunes

1

Line

MVO

iTunes

13

1 сезон

RePack

30

Deluxe

pack

Лицензия

ВАЖНО

ИГРА 18+

pack

RePack

MK11

RePack

jed

RePack

fifa19

RePack

RDR2

RePack

NEED FOR SPEED™ PAYBACK

4 сезон

9 сезон

Бесстыжие 9 сезон

Все сериалы

все сериалы на PB.wtf

RePack

FAR CRY 5

Anonymous, доброй ночи, мы катастрофически не успеваем собрать деньги на оплату серверов, помогите нам пожалуйста 5,10,15р., для нас важна любая помощь . В качестве благодарности мы отключим Вам всю рекламу на сайте (укажите свой ник в строку Ваше имя)!

×
  
Magnet ссылка

Жирнушка / Blubberella (Уве Болл) [2010 г., комедия, военный, DVD9, лицензия] pb.wtf

Жирнушка через торрент pb.wtf

Размер: 4.58 GB | Добавлен: 9 лет назад | Торрент скачан:2 раза
Скачать  

26-08-2011 18:25 Жирнушка Скачать торрент  

Жирнушка / BlubberellaГод выпуска: 2010
Страна: Германия, Канада
Жанр: комедия, военный
Продолжительность: 01:22:55
Перевод: Профессиональный (многоголосый, закадровый)
Тип релиза: Лицензия

Режиссер: Уве Болл

В ролях: Уве Болл, Уильям Белли, Брендан Флетчер, Наталия Гуслистая, Линдсэй Холлистер,Клинт Ховард, Стеффен Меннекс, Майкл Паре, Даворка Товило, Фабрис Колсон

Описание: Первая жирная женщина-супергерой. Она может надрать любую задницу, так как сама имеет наибольшую.

Качество: DVD9
Формат: MPEG Video
Видео кодек: MPEG2
Аудио кодек: AC3
Видео: ~5996 kb/s, PAL 16:9 (720x576)
Аудио:
-Аудио #1: Английский ( AC3, 6 ch, 448 kb/s)
-Аудио #2: Русский ( AC3, 6 ch, 448 kb/s )


Дополнительно: Каталог, Смотрите на DVD, Создатели и исполнители, Фотогалерея
Общее
Полное имя : D:\Жирнушка\Жирнушка\VIDEO_TS\VTS_04_2.VOB
Формат : MPEG-PS
Размер файла : 955 Мбайт
Продолжительность : 18 м.
Общий поток : 7032 Кбит/сек

Видео
Идентификатор : 224 (0xE0)
Формат : MPEG Video
Версия формата : Version 2
Профиль формата : Main@Main
Параметр BVOP формата : Да
Параметр матрицы формата : Выборочная
Параметры GOP формата : M=3, N=15
Продолжительность : 18 м.
Вид битрейта : Переменный
Битрейт : 5996 Кбит/сек
Максимальный битрейт : 8000 Кбит/сек
Ширина : 720 пикс.
Высота : 576 пикс.
Соотношение сторон : 16:9
Частота кадров : 25,000 кадр/сек
Стандарт вещания : PAL
Цветовое пространство : YUV
Подвыборка цветности : 4:2:0
Битовая глубина : 8 бит
Тип развёртки : Чересстрочная
Порядок развёртки : Нижнее поле первое
Метод сжатия : С потерями
Бит/(Пиксели*Кадры) : 0.578
Размер потока : 814 Мбайт (85%)

Аудио #1
Идентификатор : 189 (0xBD)-128 (0x80)
Формат : AC-3
Формат/Информация : Audio Coding 3
Расширение режима : CM (complete main)
Режим смешивания : DVD-Video
Продолжительность : 18 м.
Вид битрейта : Постоянный
Битрейт : 448 Кбит/сек
Каналы : 6 каналов
Расположение каналов : Front: L C R, Side: L R, LFE
Частота : 48,0 КГц
Битовая глубина : 16 бит
Метод сжатия : С потерями
Задержка видео : -728 мс.
Размер потока : 60,9 Мбайт (6%)

Аудио #2
Идентификатор : 189 (0xBD)-129 (0x81)
Формат : AC-3
Формат/Информация : Audio Coding 3
Расширение режима : CM (complete main)
Режим смешивания : DVD-Video
Продолжительность : 18 м.
Вид битрейта : Постоянный
Битрейт : 448 Кбит/сек
Каналы : 6 каналов
Расположение каналов : Front: L C R, Side: L R, LFE
Частота : 48,0 КГц
Битовая глубина : 16 бит
Метод сжатия : С потерями
Задержка видео : -728 мс.
Размер потока : 60,9 Мбайт (6%)

Текст
Идентификатор : 189 (0xBD)-32 (0x20)
Формат : RLE
Формат/Информация : Run-length encoding
Режим смешивания : DVD-Video
Title: Жирнушка
Size: 4.58 Gb ( 4 806 116,00 KBytes ) - DVD-9
Enabled regions: 1, 2, 3, 4, 5, 6, 7, 8

VTS_01 :
Play Length: 00:00:05
Video: PAL 4:3 (720x576) VBR
Subtitles:
English
English

VTS_02 :
Play Length: 00:00:15
Video: PAL 16:9 (720x576) VBR, Auto Letterboxed
Audio:
Not specified (Dolby AC3, 6 ch)
Not specified (Dolby AC3, 6 ch)
Not specified (Dolby AC3, 6 ch)
Subtitles:
Not specified

VTS_03 :
Play Length: 00:02:12
Video: PAL 16:9 (720x576) VBR, Auto Letterboxed
Audio:
Not specified (Dolby AC3, 2 ch)
Not specified (Dolby AC3, 2 ch)
Subtitles:
Not specified

VTS_04 :
Play Length: 01:22:55
Video: PAL 16:9 (720x576) VBR, Auto Letterboxed
Audio:
Russian (Dolby AC3, 6 ch)
English (Dolby AC3, 6 ch)
Subtitles:
Russian

VTS_05 :
Play Length: 00:02:00
Video: PAL 16:9 (720x576) VBR, Auto Letterboxed
Audio:
Not specified (Dolby AC3, 2 ch)
Subtitles:
Not specified

VTS_06 :
Play Length: 00:01:51
Video: PAL 16:9 (720x576) VBR, Auto Letterboxed
Audio:
Not specified (Dolby AC3, 2 ch)
Subtitles:
Not specified

VTS_07 :
Play Length: 00:01:53
Video: PAL 16:9 (720x576) VBR, Auto Letterboxed
Audio:
Not specified (Dolby AC3, 2 ch)
Subtitles:
Not specified

VTS_08 :
Play Length: 00:02:05
Video: PAL 16:9 (720x576) VBR, Auto Letterboxed
Audio:
Not specified (Dolby AC3, 2 ch)
Subtitles:
Not specified

VTS_09 :
Play Length: 00:01:53
Video: PAL 16:9 (720x576) VBR, Auto Letterboxed
Audio:
Not specified (Dolby AC3, 6 ch)
Subtitles:
Not specified

VTS_10 :
Play Length: 00:02:26
Video: PAL 16:9 (720x576) VBR, Auto Letterboxed
Audio:
Not specified (Dolby AC3, 2 ch)
Subtitles:
Not specified

VTS_11 :
Play Length: 00:01:57
Video: PAL 16:9 (720x576) VBR, Auto Letterboxed
Audio:
Not specified (Dolby AC3, 2 ch)
pb.wtf



Скачать Жирнушка через торрент http://lostpic.net/images/ea88774cebb9a1bc773414daafd8c737.jpg Скачать фильм Жирнушка через торрент бесплантно в хорошем качестве Описание: Первая жирная женщина-супергерой. Она может надрать любую задницу, так как сама имеет ... 4.4 10 5
Info! Золотая раздача, скачанное не засчитывается.
Торрент: Зарегистрирован [2011-08-26 18:25] · скачан: 2 раз
Статус: √ проверено
Размер: 4.58 GB
Как cкачать? Как скачать Жирнушка через торрент | UTorrent

% Раздел Тема Автор DL S | L
Фильмы 2010 [ 1.37 GB ] Блюбарелла - Супервумен / Жирнушка / Blubberella [2010 военный HDRip MVO лицензия] Ворон Скачать
1 | 0
Фильмы 2010 [ 1.37 GB ] Блюбарелла - Супервумен / Жирнушка / Blubberella [2010 военный HDRip лицензия] Чупачупсик Скачать
1 | 0
Фильмы 2011 [ 1.46 GB ] Жирнушка / Blubberella [2011 военный HDRip] Sудья Скачать
1 | 0
Фильмы 2011 [ 799 MB ] Жирнушка / Blubberella [2011 DVDRip] shuller Скачать
1 | 0


Последний раз редактировалось: =GAS= (2011-08-26 19:23), всего редактировалось 3 раз(а)

28-11-2019 20:33  

Отключить всю рекламу на сайте

26-08-2011 18:57 Жирнушка Скачать торрент  

скачаю блин :D классная пародия на Бладрейн!pb.wtf



26-08-2011 19:40 Жирнушка Скачать торрент  

Это смотреть можно?pb.wtf



    Дорогой пользователь! Огромная просьба, поблагодарите релизера, оцените раздачу и оставьте свои комментарий, если Вы скачали Жирнушка через торрент бесплатно! Внесите свою лепту в развитие PiratBit!
    Комментировать посты могут только пользователи прошедшие не сложную регистрацию
    Показать сообщения:    

    Жирнушка через торрент
    Скачать бесплатно Жирнушка
    Жирнушка скачать торрент
    Жирнушка смотреть онлайн
    Cкачать фильм Жирнушка бесплатно
    Жирнушка скачать торрент в хорошем качестве
    Жирнушка смотреть онлайн бесплатно в хорошем качестве


    Вы не можете начинать темы
    Вы не можете отвечать на сообщения
    Вы не можете редактировать свои сообщения
    Вы не можете удалять свои сообщения
    Вы не можете голосовать в опросах
    Вы не можете прикреплять файлы к сообщениям
    Вы можете скачивать файлы