1 сезон

3 сезон

iTunes

1

iTunes

MVO

iTunes

13

1 сезон

RePack

30

Deluxe

pack

Лицензия

ВАЖНО

ИГРА 18+

pack

RePack

MK11

RePack

jed

RePack

fifa19

RePack

RDR2

RePack

NEED FOR SPEED™ PAYBACK

4 сезон

9 сезон

Бесстыжие 9 сезон

Все сериалы

все сериалы на PB.wtf

RePack

FAR CRY 5

Anonymous, доброе утро, мы катастрофически не успеваем собрать деньги на оплату серверов, помогите нам пожалуйста 5,10,15р., для нас важна любая помощь . В качестве благодарности мы отключим Вам всю рекламу на сайте (укажите свой ник в строку Ваше имя)!

×
  
Magnet ссылка

Близнецы-убийцы / Seconds Apart (Антонио Негрет / Antonio Negret) [2010, ужасы, триллер, DVD5] R5 pb.wtf

Близнецы-убийцы через торрент pb.wtf

Размер: 3.9 GB | Добавлен: 9 лет назад | Торрент скачан:56 раз
Скачать  

26-08-2011 19:35 Близнецы-убийцы Скачать торрент  


Близнецы-убийцы / Seconds Apart
«Смерть пришла не одна.»
Страна: США
Студия: AfterDark Films
Жанр: ужасы, триллер
Год выпуска: 2010
Мировая премьера: 28 января 2011
Российская премьера: 7 июля 2011, «Top Film Distribution»
Дата выхода DVD: 25 августа 2011, «Новый Диск»
Продолжительность: 01:25:07
Перевод: Профессиональный (многоголосый закадровый) [Лицензия]
Cубтитры: украинские
Режиссер: Антонио Негрет / Antonio Negret
В ролях: Орландо Джонс, Саманта Дрок, Луис Хертум, Моргана Шоу, Моника Акоста
Описание: Мальчики из хорошего общества… Кто скажет, что они — безжалостные убийцы? Их дар — телекинез и этот дар стал их проклятием. Невероятные способности помутненного разума становятся орудием таких отвратительных преступлений, на которые способно лишь самое извращенное сознание. Сыщики ищут след загадочных маньяков. А в это время зло порождает жестокий конфликт между самими братьями-монстрами…
Бонусы: нет

Релиз группы:
Качество: DVD5 R5
Формат: DVD-Video
Видео кодек: MPEG2
Аудио кодек: AC3
Видео: PAL 16:9 (720x576(0.577)) MPEG Video, 25,000 кадр/сек, 5985 Кбит/сек
Аудио: Russian (Dolby AC3, 6 ch) 384 Кбит/сек, 48,0 КГц



Title:
Size: 3.90 Gb ( 4 085 804 KBytes ) - DVD-5
Enabled regions: 1, 2, 3, 4, 5, 6, 7, 8

VTS_01 :
Play Length: 00:00:08
Video: PAL 4:3 (720x576) VBR

VTS_02 :
Play Length: 00:00:13
Video: PAL 16:9 (720x576) VBR, Auto Pan&Scan

VTS_03 :
Play Length: 01:25:07
Video: PAL 16:9 (720x576) VBR, Auto Pan&Scan
Audio:
Russian (Dolby AC3, 6 ch)
Subtitles:
Ukrainian

VTS_04 :
Play Length: 00:00:16
Video: PAL 16:9 (720x576) VBR, Auto Pan&Scan
Audio:
English (Dolby AC3, 2 ch)

VTS_05 :
Play Length: 00:00:15
Video: PAL 4:3 (720x576) VBR
Audio:
English (Dolby AC3, 2 ch)
Общее
Полное имя : G:\Новинки 2011\Bliznecy.ubijcy.2010.DVD5\VIDEO_TS\VTS_03_1.VOB
Формат : MPEG-PS
Размер файла : 1024 Мбайт
Продолжительность : 22 м.
Общий поток : 6498 Кбит/сек

Видео
Идентификатор : 224 (0xE0)
Формат : MPEG Video
Версия формата : Version 2
Профиль формата : Main@Main
Параметр BVOP формата : Да
Параметр матрицы формата : По умолчанию
Параметр GOP формата : M=3, N=15
Продолжительность : 22 м.
Вид битрейта : Переменный
Битрейт : 5985 Кбит/сек
Максимальный битрейт : 8000 Кбит/сек
Ширина : 720 пикселей
Высота : 576 пикселей
Соотношение сторон : 16:9
Частота кадров : 25,000 кадров/сек
Стандарт вещания : PAL
Цветовое пространство : YUV
Субдискретизация насыщенности : 4:2:0
Битовая глубина : 8 бит
Тип развёртки : Прогрессивная
Метод сжатия : С потерями
Бит/(Пиксели*Кадры) : 0.577
Размер потока : 943 Мбайт (92%)

Аудио
Идентификатор : 189 (0xBD)-128 (0x80)
Формат : AC-3
Формат/Информация : Audio Coding 3
Расширение режима : CM (complete main)
Режим смешивания : DVD-Video
Продолжительность : 22 м.
Вид битрейта : Постоянный
Битрейт : 384 Кбит/сек
Каналы : 6 каналов
Расположение каналов : Front: L C R, Side: L R, LFE
Частота : 48,0 КГц
Битовая глубина : 16 бит
Метод сжатия : С потерями
Задержка видео : -80 мс.
Размер потока : 60,5 Мбайт (6%)










pb.wtf



Скачать Близнецы-убийцы через торрент http://i2.imageban.ru/out/2011/08/26/f2b6577700e85260a9ea574438959d22.jpg Скачать фильм Близнецы-убийцы через торрент бесплантно в хорошем качестве Описание: Мальчики из хорошего общества… Кто скажет, что они — безжалостные убийцы? Их дар — телекинез и этот дар стал их проклятием. ... 5 10 1
Info! Золотая раздача, скачанное не засчитывается.
Торрент: Зарегистрирован [2011-08-26 19:35] · скачан: 56 раз
Статус: √ проверено
Размер: 3.9 GB
Как cкачать? Как скачать Близнецы-убийцы через торрент | UTorrent

28-11-2019 20:33  

Отключить всю рекламу на сайте

    Дорогой пользователь! Огромная просьба, поблагодарите релизера, оцените раздачу и оставьте свои комментарий, если Вы скачали Близнецы-убийцы через торрент бесплатно! Внесите свою лепту в развитие PiratBit!
    Комментировать посты могут только пользователи прошедшие не сложную регистрацию
    Показать сообщения:    

    Близнецы-убийцы через торрент
    Скачать бесплатно Близнецы-убийцы
    Близнецы-убийцы скачать торрент
    Близнецы-убийцы смотреть онлайн
    Cкачать фильм Близнецы-убийцы бесплатно
    Близнецы-убийцы скачать торрент в хорошем качестве
    Близнецы-убийцы смотреть онлайн бесплатно в хорошем качестве


    Вы не можете начинать темы
    Вы не можете отвечать на сообщения
    Вы не можете редактировать свои сообщения
    Вы не можете удалять свои сообщения
    Вы не можете голосовать в опросах
    Вы не можете прикреплять файлы к сообщениям
    Вы можете скачивать файлы