новый адрес
Мега распродажа FORZA HORIZON 4 ULTIMATE+ВСЕ DLC+ОНЛАЙН всего за 499р. 349 руб. (супер цена). Внимание количество ограничено!!!

iTunes

1+1

iTunes

мы

iTunes

1

iTunes

Чернобыль

iTunes

Ральф против интернета

Лицензия

ПШазам

Лицензия

Игра престолов

Лицензия

30
pack

ВАЖНО

!!Акция!!

Alien_RageХит недели

RePack

Resident Evil 21

ИГРА 18+

pack

RePack

Metro:Exodus

!!Акция!!

Alien_Rage

RePack

fifa19

RePack

Assassins Creed: Odyssey

RePack

NEED FOR SPEED™ PAYBACK

3 сезон

9 сезон

Бесстыжие 9 сезон

Все сериалы

все сериалы на PB.wtf

RePack

FAR CRY 5
Ребята, катастрофически не хватает 1900р. для оплаты серверов за Октябрь (всвязи с блокировками трафик упал в 3 раза), 1-2р., выручайте.
  

В бой идут одни "старики" (Леонид Быков) [1973 г., драма, комедия, военный, DVD5] [цветное изображение] pb.wtf

В бой идут одни "старики" через торрент pb.wtf

Размер: 4.31 GB | Добавлен: 8 лет 2 мес. назад | Торрент скачан:162 раза
Скачать  

28-08-2011 18:19 В бой идут одни "старики" Скачать торрент  

В бой идут одни "старики"Год выпуска: 1973
Страна: СССР
Жанр: драма, комедия, военный
Продолжительность: 01:26:52

Режиссер: Леонид Быков
Сценарий: Леонид Быков, Евгений Оноприенко, Александр Сацкий

Бюджет: $500 000

Мировой рейтинг IMDB 8.20 (904)


Дата мировой премьеры: 1 сентября 1974
Релиз на DVD (РФ): 28 апреля 2011, «Новый Диск»

В ролях: Леонид Быков, Сергей Подгорный, Сергей Иванов, Рустам Сагдуллаев, Евгения Симонова, Ольга Матешко, Владимир Талашко, Алексей Смирнов, Виктор Мирошниченко, Григорий Глад

Описание: Эта эскадрилья стала «поющей» — так капитан Титаренко подбирал себе новичков. Его «старикам» было не больше двадцати, но «желторотиков», пополнение из летных училищ ускоренного выпуска, в бой все равно, по возможности, не пускали. Им еще многое предстояло испытать — и жар боев, и радость первой победы над врагом, и величие братства, скрепленного кровью, и первую любовь, и горечь утраты... И настанет день, когда по команде «в бой идут одни старики» бывшие желторотики бросятся к своим самолетам...

Качество: DVD5
Формат: DVD Video
Видео кодек: MPEG2
Аудио кодек: WAVPack
Видео: 720*576, PAL 4/3, MPEG-2 VBR, 25fps, 6356kbps
Аудио: MPEG Audio, CBR,48kHz, 224kbps, 2канала, stereo.
* Леонид Быков поступал в летную школу в 1945 году, но малый рост не позволил ему стать летчиком.
* Быков осуществил свою давнюю мечту и освоил управление самолетом во время съемок картины.
* Поющая эскадрилья на самом деле существовала во время Великой Отечественной войны.
* Студентка театрального института Евгения Симонова снималась во время учебы — на съемочную площадку ее привела мама.
* Государственные чиновники долго не принимали сценарий фильма, вначале производства картины для съемок выделили всего один самолет. После того как сценарий фильма очень понравился одному из маршалов авиации — на площадке появилось ещё два самолета.
* В роли «догорающего мессера», сбитого «Кузнечиком» был использован планер КАИ-12 «Приморец».
* История Героя Советского Союза Надежды Поповой и Героя Советского Союза Семёна Харламова легла в основу любовной линии фильма.
* Еще в 1967 году Леониду Быкову предложили поставить картину о летчиках по сценарию Владимира Кунина «Хроника пикирующего бомбардировщика». Однако он непременно хотел включить в нее песню Смуглянка, что было категорически отвергнуто Куниным. Свой замысел о летчиках, поющих «Смуглянку», Быков воплотил в ленте «В бой идут одни «старики».
* Руководство Госкино запретило фильм, ссылаясь на то, что он на самом деле не о Войне. Однако когда сценарий показали командующему ВВС СССР Александру Покрышкину, он прямо на весь лист поставил резолюцию: «Вот это и есть война!».
* Занимает по посещаемости 61-е место среди отечественных фильмов за всю историю советского кинопроката
* Изначально Леонид Быков хотел снимать фильм цветным. Но цветная пленка, которая лежала на студии Довженко, давалась только на соцреалистические фильмы. Быкову говорили: если будешь снимать под заказ фильм о трактористах – дадим цветную пленку. На фильм о войне дали только черно-белую.
* Роль советских истребителей в фильме исполняют учебно-тренировочные самолёты Як-18, роль Мессершмитта — чехословацкий спортивно-пилотажный Злин Z-326 Акробат. Пилотированием занимались лётчики ДОСААФ. Настоящие истребители времён второй мировой появляются только на вставках с кинохроникой.






Общее
Полное имя : C:\Users\Зарезервированное имя\Downloads\В бой идут одни старики 1973 DVD5\VIDEO_TS.BUP
Формат : DVD Video
Профиль формата : Menu
Размер файла : 16,0 Кбайт

Видео
Идентификатор : 224 (0xE0)
Формат : MPEG Video
Версия формата : Version 2
Вид битрейта : Переменный
Ширина : 720 пикс.
Высота : 576 пикс.
Соотношение сторон : 4:3
Частота кадров : 25,000 кадр/сек
Стандарт вещания : PAL
Метод сжатия : С потерями

Аудио
Формат : MPEG Audio
Профиль формата : Version 1
Канал(ы) : 2 канала(ов)
Частота : 48,0 КГц
Метод сжатия : С потерями

Текст
Формат : RLE
Формат/Информация : Run-length encoding
Битовая глубина : 2 бит

Общее
Полное имя : C:\Users\Зарезервированное имя\Downloads\В бой идут одни старики 1973 DVD5\VIDEO_TS.IFO
Формат : DVD Video
Профиль формата : Menu
Размер файла : 16,0 Кбайт

Видео
Идентификатор : 224 (0xE0)
Формат : MPEG Video
Версия формата : Version 2
Вид битрейта : Переменный
Ширина : 720 пикс.
Высота : 576 пикс.
Соотношение сторон : 4:3
Частота кадров : 25,000 кадр/сек
Стандарт вещания : PAL
Метод сжатия : С потерями

Аудио
Формат : MPEG Audio
Профиль формата : Version 1
Канал(ы) : 2 канала(ов)
Частота : 48,0 КГц
Метод сжатия : С потерями

Текст
Формат : RLE
Формат/Информация : Run-length encoding
Битовая глубина : 2 бит

Общее
Полное имя : C:\Users\Зарезервированное имя\Downloads\В бой идут одни старики 1973 DVD5\VIDEO_TS.VOB
Формат : MPEG-PS
Размер файла : 146 Мбайт
Продолжительность : 2 с. 0 мс.
Общий поток : 613 Мбит/сек
Библиотека кодирования : Created by Nero

Видео
Идентификатор : 224 (0xE0)
Формат : MPEG Video
Версия формата : Version 2
Профиль формата : Main@Main
Параметр BVOP формата : Да
Параметр матрицы формата : По умолчанию
Параметры GOP формата : M=3, N=15
Продолжительность : 2 с. 0 мс.
Вид битрейта : Переменный
Битрейт : 9610 Кбит/сек
Ширина : 720 пикс.
Высота : 576 пикс.
Соотношение сторон : 4:3
Частота кадров : 25,000 кадр/сек
Стандарт вещания : PAL
Цветовое пространство : YUV
Подвыборка цветности : 4:2:0
Битовая глубина : 8 бит
Тип развёртки : Прогрессивная
Порядок развёртки : Нижнее поле первое
Метод сжатия : С потерями
Бит/(Пиксели*Кадры) : 0.927
Размер потока : 2,29 Мбайт (2%)
Библиотека кодирования : Created by Nero

Аудио
Идентификатор : 192 (0xC0)
Формат : MPEG Audio
Версия формата : Version 1
Профиль формата : Layer 2
Продолжительность : 2 с. 0 мс.
Вид битрейта : Постоянный
Битрейт : 224 Кбит/сек
Канал(ы) : 2 канала(ов)
Частота : 48,0 КГц
Метод сжатия : С потерями
Задержка видео : -40 мс.
Размер потока : 54,7 Кбайт (0%)

Текст
Идентификатор : 189 (0xBD)-32 (0x20)
Формат : RLE
Формат/Информация : Run-length encoding
Режим смешивания : DVD-Video

Меню

Общее
Полное имя : C:\Users\Зарезервированное имя\Downloads\В бой идут одни старики 1973 DVD5\VTS_01_0.BUP
Формат : DVD Video
Профиль формата : Program
Размер файла : 46,0 Кбайт
Продолжительность : 1 ч. 26 м.
Общий поток : 72 бит/сек

Видео
Идентификатор : 224 (0xE0)
Формат : MPEG Video
Версия формата : Version 2
Продолжительность : 1 ч. 26 м.
Вид битрейта : Переменный
Ширина : 720 пикс.
Высота : 576 пикс.
Соотношение сторон : 4:3
Частота кадров : 25,000 кадр/сек
Стандарт вещания : PAL
Метод сжатия : С потерями

Аудио
Идентификатор : 0 (0x0)
Формат : MPEG Audio
Профиль формата : Version 1
Продолжительность : 1 ч. 26 м.
Канал(ы) : 2 канала(ов)
Частота : 48,0 КГц
Метод сжатия : С потерями

Меню #1
Продолжительность : 1 ч. 26 м.
00:00:00.000 : Chapter 1
00:12:50.000 : Chapter 2
00:30:45.920 : Chapter 3
00:36:49.920 : Chapter 4
00:48:57.880 : Chapter 5
01:07:27.680 : Chapter 6
List (Audio) : 0

Меню #2

Меню #3

Меню #4

Общее
Полное имя : C:\Users\Зарезервированное имя\Downloads\В бой идут одни старики 1973 DVD5\VTS_01_0.IFO
Формат : DVD Video
Профиль формата : Program
Размер файла : 46,0 Кбайт
Продолжительность : 1 ч. 26 м.
Общий поток : 72 бит/сек

Видео
Идентификатор : 224 (0xE0)
Формат : MPEG Video
Версия формата : Version 2
Продолжительность : 1 ч. 26 м.
Вид битрейта : Переменный
Ширина : 720 пикс.
Высота : 576 пикс.
Соотношение сторон : 4:3
Частота кадров : 25,000 кадр/сек
Стандарт вещания : PAL
Метод сжатия : С потерями

Аудио
Идентификатор : 0 (0x0)
Формат : MPEG Audio
Профиль формата : Version 1
Продолжительность : 1 ч. 26 м.
Канал(ы) : 2 канала(ов)
Частота : 48,0 КГц
Метод сжатия : С потерями

Меню #1
Продолжительность : 1 ч. 26 м.
00:00:00.000 : Chapter 1
00:12:50.000 : Chapter 2
00:30:45.920 : Chapter 3
00:36:49.920 : Chapter 4
00:48:57.880 : Chapter 5
01:07:27.680 : Chapter 6
List (Audio) : 0

Меню #2

Меню #3

Меню #4

Общее
Полное имя : C:\Users\Зарезервированное имя\Downloads\В бой идут одни старики 1973 DVD5\VTS_01_1.VOB
Формат : MPEG-PS
Размер файла : 1024 Мбайт
Продолжительность : 20 м.
Общий поток : 6859 Кбит/сек
Библиотека кодирования : Created by Nero

Видео
Идентификатор : 224 (0xE0)
Формат : MPEG Video
Версия формата : Version 2
Профиль формата : Main@Main
Параметр BVOP формата : Да
Параметр матрицы формата : По умолчанию
Параметры GOP формата : M=3, N=15
Продолжительность : 20 м.
Вид битрейта : Переменный
Битрейт : 6498 Кбит/сек
Номинальный битрейт : 9610 Кбит/сек
Ширина : 720 пикс.
Высота : 576 пикс.
Соотношение сторон : 4:3
Частота кадров : 25,000 кадр/сек
Стандарт вещания : PAL
Цветовое пространство : YUV
Подвыборка цветности : 4:2:0
Битовая глубина : 8 бит
Тип развёртки : Прогрессивная
Порядок развёртки : Нижнее поле первое
Метод сжатия : С потерями
Бит/(Пиксели*Кадры) : 0.627
Размер потока : 970 Мбайт (95%)
Библиотека кодирования : Created by Nero

Аудио
Идентификатор : 192 (0xC0)
Формат : MPEG Audio
Версия формата : Version 1
Профиль формата : Layer 2
Продолжительность : 20 м.
Вид битрейта : Постоянный
Битрейт : 224 Кбит/сек
Канал(ы) : 2 канала(ов)
Частота : 48,0 КГц
Метод сжатия : С потерями
Задержка видео : -40 мс.
Размер потока : 33,4 Мбайт (3%)

Меню

Общее
Полное имя : C:\Users\Зарезервированное имя\Downloads\В бой идут одни старики 1973 DVD5\VTS_01_2.VOB
Формат : MPEG-PS
Размер файла : 1024 Мбайт
Продолжительность : 20 м.
Общий поток : 6874 Кбит/сек

Видео
Идентификатор : 224 (0xE0)
Формат : MPEG Video
Версия формата : Version 2
Профиль формата : Main@Main
Параметр BVOP формата : Да
Параметр матрицы формата : По умолчанию
Параметры GOP формата : M=3, N=15
Продолжительность : 20 м.
Вид битрейта : Переменный
Битрейт : 6513 Кбит/сек
Номинальный битрейт : 9610 Кбит/сек
Ширина : 720 пикс.
Высота : 576 пикс.
Соотношение сторон : 4:3
Частота кадров : 25,000 кадр/сек
Стандарт вещания : PAL
Цветовое пространство : YUV
Подвыборка цветности : 4:2:0
Битовая глубина : 8 бит
Тип развёртки : Прогрессивная
Порядок развёртки : Нижнее поле первое
Метод сжатия : С потерями
Бит/(Пиксели*Кадры) : 0.628
Размер потока : 970 Мбайт (95%)

Аудио
Идентификатор : 192 (0xC0)
Формат : MPEG Audio
Версия формата : Version 1
Профиль формата : Layer 2
Продолжительность : 20 м.
Вид битрейта : Постоянный
Битрейт : 224 Кбит/сек
Канал(ы) : 2 канала(ов)
Частота : 48,0 КГц
Метод сжатия : С потерями
Задержка видео : -600 мс.
Размер потока : 33,4 Мбайт (3%)

Меню

Общее
Полное имя : C:\Users\Зарезервированное имя\Downloads\В бой идут одни старики 1973 DVD5\VTS_01_3.VOB
Формат : MPEG-PS
Размер файла : 1024 Мбайт
Продолжительность : 20 м.
Общий поток : 6866 Кбит/сек

Видео
Идентификатор : 224 (0xE0)
Формат : MPEG Video
Версия формата : Version 2
Профиль формата : Main@Main
Параметр BVOP формата : Да
Параметр матрицы формата : По умолчанию
Параметры GOP формата : M=3, N=15
Продолжительность : 20 м.
Вид битрейта : Переменный
Битрейт : 6505 Кбит/сек
Номинальный битрейт : 9610 Кбит/сек
Ширина : 720 пикс.
Высота : 576 пикс.
Соотношение сторон : 4:3
Частота кадров : 25,000 кадр/сек
Стандарт вещания : PAL
Цветовое пространство : YUV
Подвыборка цветности : 4:2:0
Битовая глубина : 8 бит
Тип развёртки : Прогрессивная
Порядок развёртки : Нижнее поле первое
Метод сжатия : С потерями
Бит/(Пиксели*Кадры) : 0.627
Размер потока : 970 Мбайт (95%)

Аудио
Идентификатор : 192 (0xC0)
Формат : MPEG Audio
Версия формата : Version 1
Профиль формата : Layer 2
Продолжительность : 20 м.
Вид битрейта : Постоянный
Битрейт : 224 Кбит/сек
Канал(ы) : 2 канала(ов)
Частота : 48,0 КГц
Метод сжатия : С потерями
Задержка видео : -784 мс.
Размер потока : 33,4 Мбайт (3%)

Меню

Общее
Полное имя : C:\Users\Зарезервированное имя\Downloads\В бой идут одни старики 1973 DVD5\VTS_01_4.VOB
Формат : MPEG-PS
Размер файла : 1024 Мбайт
Продолжительность : 20 м.
Общий поток : 6852 Кбит/сек

Видео
Идентификатор : 224 (0xE0)
Формат : MPEG Video
Версия формата : Version 2
Профиль формата : Main@Main
Параметр BVOP формата : Да
Параметр матрицы формата : По умолчанию
Параметры GOP формата : M=3, N=15
Продолжительность : 20 м.
Вид битрейта : Переменный
Битрейт : 6491 Кбит/сек
Номинальный битрейт : 9610 Кбит/сек
Ширина : 720 пикс.
Высота : 576 пикс.
Соотношение сторон : 4:3
Частота кадров : 25,000 кадр/сек
Стандарт вещания : PAL
Цветовое пространство : YUV
Подвыборка цветности : 4:2:0
Битовая глубина : 8 бит
Тип развёртки : Прогрессивная
Порядок развёртки : Нижнее поле первое
Метод сжатия : С потерями
Бит/(Пиксели*Кадры) : 0.626
Размер потока : 970 Мбайт (95%)

Аудио
Идентификатор : 192 (0xC0)
Формат : MPEG Audio
Версия формата : Version 1
Профиль формата : Layer 2
Продолжительность : 20 м.
Вид битрейта : Постоянный
Битрейт : 224 Кбит/сек
Канал(ы) : 2 канала(ов)
Частота : 48,0 КГц
Метод сжатия : С потерями
Задержка видео : -776 мс.
Размер потока : 33,5 Мбайт (3%)

Меню

Общее
Полное имя : C:\Users\Зарезервированное имя\Downloads\В бой идут одни старики 1973 DVD5\VTS_01_5.VOB
Формат : MPEG-PS
Размер файла : 171 Мбайт
Продолжительность : 3 м. 26 с.
Общий поток : 6954 Кбит/сек

Видео
Идентификатор : 224 (0xE0)
Формат : MPEG Video
Версия формата : Version 2
Профиль формата : Main@Main
Параметр BVOP формата : Да
Параметр матрицы формата : По умолчанию
Параметры GOP формата : M=3, N=15
Продолжительность : 3 м. 25 с.
Вид битрейта : Переменный
Битрейт : 6591 Кбит/сек
Номинальный битрейт : 9610 Кбит/сек
Ширина : 720 пикс.
Высота : 576 пикс.
Соотношение сторон : 4:3
Частота кадров : 25,000 кадр/сек
Стандарт вещания : PAL
Цветовое пространство : YUV
Подвыборка цветности : 4:2:0
Битовая глубина : 8 бит
Тип развёртки : Прогрессивная
Порядок развёртки : Нижнее поле первое
Метод сжатия : С потерями
Бит/(Пиксели*Кадры) : 0.636
Размер потока : 162 Мбайт (95%)

Аудио
Идентификатор : 192 (0xC0)
Формат : MPEG Audio
Версия формата : Version 1
Профиль формата : Layer 2
Продолжительность : 3 м. 26 с.
Вид битрейта : Постоянный
Битрейт : 224 Кбит/сек
Канал(ы) : 2 канала(ов)
Частота : 48,0 КГц
Метод сжатия : С потерями
Задержка видео : -504 мс.
Размер потока : 5,50 Мбайт (3%)

Меню

pb.wtf



Скачать В бой идут одни "старики" через торрент http://lostpic.net/images/a5965f42dc5de8d862b2c7ca1873a481.jpg Скачать фильм В бой идут одни "старики" через торрент бесплантно в хорошем качестве Описание: Эта эскадрилья стала «поющей» — так капитан Титаренко подбирал себе новичков. Его «старикам» было не больше двадцати, ... 9.5 10 2
Info! Золотая раздача, скачанное не засчитывается.
Торрент: Зарегистрирован [2011-08-28 18:19] · скачан: 162 раз
Статус: √ проверено
Размер: 4.31 GB
Как cкачать? Как скачать В бой идут одни "старики" через торрент | qTorrent



Последний раз редактировалось: =GAS= (2011-08-28 18:23), всего редактировалось 1 раз


>> Регистрируемся здесь <<






Отзывы и комментарии о схеме читаем и пишем здесь: ---> Отзывы и комментарии о схеме

Новые благодарочки в телеграм довольных пользователей:
скриншот   скриншот   скриншот   скриншот   скриншот

28-08-2011 18:21 В бой идут одни "старики" Скачать торрент  

pb.wtf



28-08-2011 19:09 В бой идут одни "старики" Скачать торрент  

Огромнейшая БЛАГАДАРНОСТЬ !!!!!!!!!!!!!!pb.wtf



28-08-2011 19:13 В бой идут одни "старики" Скачать торрент  

=GAS= писал(а):


Тока , не -Проподай !!!pb.wtf



28-08-2011 19:38 В бой идут одни "старики" Скачать торрент  

evlampijj писал(а):

Тока , не -Проподай !!!

Стою на раздаче, можешь не беспокоится))pb.wtf



17-01-2012 18:29 В бой идут одни "старики" Скачать торрент  

Фильм клааассс!!!!!pb.wtf



11-03-2012 11:57 В бой идут одни "старики" Скачать торрент  

Хороший фильмpb.wtf



    Дорогой пользователь! Огромная просьба, поблагодарите релизера, оцените раздачу и оставьте свои комментарий, если Вы скачали В бой идут одни "старики" через торрент бесплатно! Внесите свою лепту в развитие PiratBit!
    Комментировать посты могут только пользователи прошедшие не сложную регистрацию
    Показать сообщения:    

    В бой идут одни "старики" через торрент
    Скачать бесплатно В бой идут одни "старики"
    В бой идут одни "старики" скачать торрент
    В бой идут одни "старики" смотреть онлайн
    Cкачать фильм В бой идут одни "старики" бесплатно
    В бой идут одни "старики" скачать торрент в хорошем качестве
    В бой идут одни "старики" смотреть онлайн бесплатно в хорошем качестве


    Вы не можете начинать темы
    Вы не можете отвечать на сообщения
    Вы не можете редактировать свои сообщения
    Вы не можете удалять свои сообщения
    Вы не можете голосовать в опросах
    Вы не можете прикреплять файлы к сообщениям
    Вы можете скачивать файлы