новый адрес
Мега распродажа FORZA HORIZON 4 ULTIMATE+ВСЕ DLC+ОНЛАЙН всего за 499р. 349 руб. (супер цена). Внимание количество ограничено!!!

iTunes

1+1

iTunes

мы

iTunes

1

iTunes

Чернобыль

iTunes

Ральф против интернета

Лицензия

ПШазам

Лицензия

Игра престолов

Лицензия

30
pack

ВАЖНО

!!Акция!!

Alien_RageХит недели

RePack

Resident Evil 21

ИГРА 18+

pack

RePack

Metro:Exodus

!!Акция!!

Alien_Rage

RePack

fifa19

RePack

Assassins Creed: Odyssey

RePack

NEED FOR SPEED™ PAYBACK

3 сезон

9 сезон

Бесстыжие 9 сезон

Все сериалы

все сериалы на PB.wtf

RePack

FAR CRY 5
Ребята, катастрофически не хватает 1900р. для оплаты серверов за Октябрь (всвязи с блокировками трафик упал в 3 раза), 1-2р., выручайте.
  

Кавказская пленница, или Новые приключения Шурика (Леонид Гайдай) [1967 г., мелодрама, комедия, приключения, семейный, музыка, DVD5] pb.wtf

Кавказская пленница, или Новые приключения Шурика через торрент pb.wtf

Размер: 2.55 GB | Добавлен: 8 лет 2 мес. назад | Торрент скачан:11 раз
Скачать  

29-08-2011 06:35 Кавказская пленница, или Новые приключения Шурика Скачать торрент  

Кавказская пленница, или Новые приключения Шурика

Год выпуска: 1967
Страна: СССР
Жанр: мелодрама, комедия, приключения, семейный, музыка
Продолжительность: 01:18:19

Перевод: Не требуется
Язык субтитров: Русский
Вид субтитров: Вшитые (с возможностью отключения)

Режиссер: Леонид Гайдай
Сценарий: Леонид Гайдай, Яков Костюковский, Морис Слободской


Мировой рейтинг IMDB 7.90 (2 765)


В ролях: Александр Демьяненко, Наталья Варлей, Руслан Ахметов, Юрий Никулин, Георгий Вицин, Евгений Моргунов, Владимир Этуш, Фрунзик Мкртчян, Нина Гребешкова, Михаил Глузск

Описание: Отправившись в одну из горных республик собирать фольклор, герой фильма Шурик влюбляется в симпатичную девушку — «спортсменку, отличницу, и просто красавицу». Но ее неожиданно похищают, чтобы насильно выдать замуж.Наивный Шурик не сразу смог сообразить, что творится у него под носом, — однако затем отважно ринулся освобождать «кавказскую пленницу»...

Качество: DVD5
Формат: MPEG
Видео кодек: MPEG2
Аудио кодек: AC3
Видео: ~ 6080 Kbps, 720 х 576, 4:3
Аудио: 192 Kbps, AC3, 48.0 KHz
General
Complete name : E:\Файлю uTorrent\Завершенные файлы\Кавказская пленница\VIDEO_TS\VTS_02_1.VOB
Format : MPEG-PS
File size : 1 024 MiB
Duration : 23mn 32s
Overall bit rate : 6 080 Kbps

Video
ID : 224 (0xE0)
Format : MPEG Video
Format version : Version 2
Format profile : Main@Main
Format settings, BVOP : Yes
Format settings, Matrix : Default
Format settings, GOP : M=3, N=12
Duration : 23mn 32s
Bit rate mode : Constant
Bit rate : 5 319 Kbps
Nominal bit rate : 7 169 Kbps
Width : 720 pixels
Height : 576 pixels
Display aspect ratio : 4:3
Frame rate : 25.000 fps
Standard : PAL
Color space : YUV
Chroma subsampling : 4:2:0
Bit depth : 8 bits
Scan type : Progressive
Bits/(Pixel*Frame) : 0.513
Stream size : 896 MiB (87%)

Audio #1
ID : 128 (0x80)
Format : AC-3
Format/Info : Audio Coding 3
Mode extension : CM (complete main)
Duration : 23mn 32s
Bit rate mode : Constant
Bit rate : 448 Kbps
Channel(s) : 6 channels
Channel positions : Front: L C R, Side: L R, LFE
Sampling rate : 48.0 KHz
Video delay : 205ms
Stream size : 75.4 MiB (7%)

Audio #2
ID : 129 (0x81)
Format : AC-3
Format/Info : Audio Coding 3
Mode extension : CM (complete main)
Duration : 23mn 32s
Bit rate mode : Constant
Bit rate : 192 Kbps
Channel(s) : 2 channels
Channel positions : Front: L R
Sampling rate : 48.0 KHz
Video delay : -252ms
Stream size : 32.3 MiB (3%)

General
Complete name : E:\Файлю uTorrent\Завершенные файлы\Кавказская пленница\VIDEO_TS\VTS_02_3.VOB
Format : MPEG-PS
File size : 1 024 MiB
Duration : 23mn 29s
Overall bit rate : 6 092 Kbps

Video
ID : 224 (0xE0)
Format : MPEG Video
Format version : Version 2
Format profile : Main@Main
Format settings, BVOP : Yes
Format settings, Matrix : Default
Format settings, GOP : M=3, N=12
Duration : 23mn 29s
Bit rate mode : Variable
Bit rate : 5 331 Kbps
Nominal bit rate : 9 000 Kbps
Width : 720 pixels
Height : 576 pixels
Display aspect ratio : 4:3
Frame rate : 25.000 fps
Standard : PAL
Color space : YUV
Chroma subsampling : 4:2:0
Bit depth : 8 bits
Scan type : Interlaced
Scan order : Top Field First
Bits/(Pixel*Frame) : 0.514
Stream size : 896 MiB (87%)

Audio #1
ID : 128 (0x80)
Format : AC-3
Format/Info : Audio Coding 3
Mode extension : CM (complete main)
Duration : 23mn 29s
Bit rate mode : Constant
Bit rate : 448 Kbps
Channel(s) : 6 channels
Channel positions : Front: L C R, Side: L R, LFE
Sampling rate : 48.0 KHz
Video delay : -731ms
Stream size : 75.3 MiB (7%)

Audio #2
ID : 129 (0x81)
Format : AC-3
Format/Info : Audio Coding 3
Mode extension : CM (complete main)
Duration : 23mn 29s
Bit rate mode : Constant
Bit rate : 192 Kbps
Channel(s) : 2 channels
Channel positions : Front: L R
Sampling rate : 48.0 KHz
Video delay : -657ms
Stream size : 32.3 MiB (3%)

General
Complete name : E:\Файлю uTorrent\Завершенные файлы\Кавказская пленница\VIDEO_TS\VTS_02_4.VOB
Format : MPEG-PS
File size : 417 MiB
Duration : 9mn 37s
Overall bit rate : 6 057 Kbps

Video
ID : 224 (0xE0)
Format : MPEG Video
Format version : Version 2
Format profile : Main@Main
Format settings, BVOP : Yes
Format settings, Matrix : Default
Format settings, GOP : M=3, N=12
Duration : 9mn 37s
Bit rate mode : Variable
Bit rate : 5 296 Kbps
Nominal bit rate : 9 000 Kbps
Width : 720 pixels
Height : 576 pixels
Display aspect ratio : 4:3
Frame rate : 25.000 fps
Standard : PAL
Color space : YUV
Chroma subsampling : 4:2:0
Bit depth : 8 bits
Scan type : Interlaced
Scan order : Top Field First
Bits/(Pixel*Frame) : 0.511
Stream size : 365 MiB (87%)

Audio #1
ID : 128 (0x80)
Format : AC-3
Format/Info : Audio Coding 3
Mode extension : CM (complete main)
Duration : 9mn 37s
Bit rate mode : Constant
Bit rate : 448 Kbps
Channel(s) : 6 channels
Channel positions : Front: L C R, Side: L R, LFE
Sampling rate : 48.0 KHz
Video delay : -731ms
Stream size : 30.8 MiB (7%)

Audio #2
ID : 129 (0x81)
Format : AC-3
Format/Info : Audio Coding 3
Mode extension : CM (complete main)
Duration : 9mn 36s
Bit rate mode : Constant
Bit rate : 192 Kbps
Channel(s) : 2 channels
Channel positions : Front: L R
Sampling rate : 48.0 KHz
Video delay : -657ms
Stream size : 13.2 MiB (3%)

Menu





pb.wtf



Скачать Кавказская пленница, или Новые приключения Шурика через торрент http://lostpic.net/images/8c226471f837c0ebdc6d521327b94465.jpg Скачать фильм Кавказская пленница, или Новые приключения Шурика через торрент бесплантно в хорошем качестве Описание: Отправившись в одну из горных республик собирать фольклор, герой фильма Шурик влюбляется в симпатичную девушку — «спортсменку, ... 10 10 3
Info! Золотая раздача, скачанное не засчитывается.
Торрент: Зарегистрирован [2011-08-29 06:35] · скачан: 11 раз
Статус: √ проверено
Размер: 2.55 GB
Как cкачать? Как скачать Кавказская пленница, или Новые приключения Шурика через торрент | qTorrent

% Раздел Тема Автор DL S | L
Наши фильмы (Blu-ray, BD-Remux, HDDVD) [ 15.62 GB ] Кавказская пленница или Новые Шурика [1966 BD Remux Оригинальный] Бумер Скачать
1 | 0
Наши фильмы (HD, WEB-DL 720p, 1080p) [ 8.59 GB ] Кавказская пленница или новые Шурика [1967 СССР BDRip 1080p] Original Rus genkasper Скачать
3 | 0
Фильмы (BDRip, HDrip-AVC) (48-60 fps) [ 2.31 GB ] Кавказская пленница или Новые Шурика [1966 BDRip-AVC 60fps Original] от R.G. HD-Films Tiberiumsun69 Скачать
16 | 1
Кино СССР [ 2.87 GB ] Кавказская пленница или Новые Шурика [1966 СССР HDRip-AVC] От R.G. PiratFilms White Smoke Скачать
1 | 0
Наши фильмы (Blu-ray, BD-Remux, HDDVD) [ 18.62 GB ] Кавказская пленница или новые Шурика [1967 СССР BluRay Disc 1080p] Зайчина Скачать
1 | 0
Кино СССР [ 2.38 GB ] Кавказская пленница или новые Шурика [1967 ​ музыка BDRip-AVC] Romeo0502 Скачать
1 | 0


Последний раз редактировалось: =GAS= (2011-08-29 07:25), всего редактировалось 1 раз


>> Регистрируемся здесь <<






Отзывы и комментарии о схеме читаем и пишем здесь: ---> Отзывы и комментарии о схеме

Новые благодарочки в телеграм довольных пользователей:
скриншот   скриншот   скриншот   скриншот   скриншот

29-08-2011 06:37 Кавказская пленница, или Новые приключения Шурика Скачать торрент  

pb.wtf



    Дорогой пользователь! Огромная просьба, поблагодарите релизера, оцените раздачу и оставьте свои комментарий, если Вы скачали Кавказская пленница, или Новые приключения Шурика через торрент бесплатно! Внесите свою лепту в развитие PiratBit!
    Комментировать посты могут только пользователи прошедшие не сложную регистрацию
    Показать сообщения:    

    Кавказская пленница, или Новые приключения Шурика через торрент
    Скачать бесплатно Кавказская пленница, или Новые приключения Шурика
    Кавказская пленница, или Новые приключения Шурика скачать торрент
    Кавказская пленница, или Новые приключения Шурика смотреть онлайн
    Cкачать фильм Кавказская пленница, или Новые приключения Шурика бесплатно
    Кавказская пленница, или Новые приключения Шурика скачать торрент в хорошем качестве
    Кавказская пленница, или Новые приключения Шурика смотреть онлайн бесплатно в хорошем качестве


    Вы не можете начинать темы
    Вы не можете отвечать на сообщения
    Вы не можете редактировать свои сообщения
    Вы не можете удалять свои сообщения
    Вы не можете голосовать в опросах
    Вы не можете прикреплять файлы к сообщениям
    Вы можете скачивать файлы