новый адрес пиратбит piratbit
Мега распродажа FORZA HORIZON 4 ULTIMATE+ВСЕ DLC+ОНЛАЙН всего за 499р. 349 руб. (супер цена). Внимание количество ограничено!!!

iTunes

1+1

iTunes

мы

iTunes

1

iTunes

Чернобыль

iTunes

Ральф против интернета

Лицензия

ПШазам

Лицензия

Игра престолов

Лицензия

30
pack

ВАЖНО

!!Акция!!

Alien_RageХит недели

RePack

Resident Evil 21

ИГРА 18+

pack

RePack

Metro:Exodus

!!Акция!!

Alien_Rage

RePack

fifa19

RePack

Assassins Creed: Odyssey

RePack

NEED FOR SPEED™ PAYBACK

3 сезон

9 сезон

Бесстыжие 9 сезон

Все сериалы

все сериалы на PB.wtf

RePack

FAR CRY 5
Ребята, катастрофически не хватает 1900р. для оплаты серверов за Октябрь (всвязи с блокировками трафик упал в 3 раза), 1-2р., выручайте.
  

Операция «Ы» и другие приключения Шурика (Леонид Гайдай) [1965 г., комедия, DVD5] pb.wtf

Операция «Ы» и другие приключения Шурика через торрент pb.wtf

Размер: 4.36 GB | Добавлен: 8 лет 2 мес. назад | Торрент скачан:7 раз
Скачать  

29-08-2011 08:07 Операция «Ы» и другие приключения Шурика Скачать торрент  

Операция «Ы» и другие приключения ШурикаГод выпуска: 1965
Страна: СССР
Жанр: комедия
Продолжительность: 01:35:05

Режиссер: Леонид Гайдай
Сценарий: Леонид Гайдай, Яков Костюковский, Морис Слободской

Мировой рейтинг IMDB 8.00 (2 757)


В ролях: Александр Демьяненко, Алексей Смирнов, Михаил Пуговкин, Владимир Басов, Наталья Селезнева, В. Раутбарт, Виктор Павлов, Юрий Никулин, Георгий Вицин, Евгений Моргунов, Владимир Владиславский, М. Кравчуновская

Описание: Фильм состоит из трех новелл, объединенных фигурой главного героя Шурика, попадающего в самые невероятные ситуации. В «Напарнике» Шурик сражается с хулиганом Верзилой; в «Наваждении» весьма оригинальным способом готовится к экзамену; в «Операции «Ы» предотвращает «ограбление века», на которое идет знаменитая тройка — Балбес, Трус и Бывалый.

Качество: DVD5
Формат: DVD Video
Видео кодек: MPEG2
Аудио кодек: AC3
Видео: 9000 кб/с, 720x576, 4:3, 25.000 fps
Аудио: 448 кб/с, AC3 5.1
General
Complete name : E:\Файлю uTorrent\Завершенные файлы\Операция Ы\VIDEO_TS\VTS_03_1.VOB
Format : MPEG-PS
File size : 1 024 MiB
Duration : 37mn 58s
Overall bit rate : 3 771 Kbps

Video
ID : 224 (0xE0)
Format : MPEG Video
Format version : Version 2
Format profile : Main@Main
Format settings, BVOP : Yes
Format settings, Matrix : Default
Duration : 37mn 58s
Bit rate mode : Variable
Bit rate : 3 056 Kbps
Width : 720 pixels
Height : 576 pixels
Display aspect ratio : 4:3
Frame rate : 25.000 fps
Standard : PAL
Color space : YUV
Chroma subsampling : 4:2:0
Bit depth : 8 bits
Bits/(Pixel*Frame) : 0.295
Stream size : 830 MiB (81%)

Audio #1
ID : 128 (0x80)
Format : AC-3
Format/Info : Audio Coding 3
Mode extension : CM (complete main)
Duration : 37mn 57s
Bit rate mode : Constant
Bit rate : 448 Kbps
Channel(s) : 6 channels
Channel positions : Front: L C R, Side: L R, LFE
Sampling rate : 48.0 KHz
Video delay : 293ms
Stream size : 122 MiB (12%)

Audio #2
ID : 129 (0x81)
Format : AC-3
Format/Info : Audio Coding 3
Mode extension : CM (complete main)
Duration : 37mn 57s
Bit rate mode : Constant
Bit rate : 192 Kbps
Channel(s) : 2 channels
Channel positions : Front: L R
Sampling rate : 48.0 KHz
Video delay : 400ms
Stream size : 52.1 MiB (5%)
--------------------------------------------------------------------
General
Complete name : E:\Файлю uTorrent\Завершенные файлы\Операция Ы\VIDEO_TS\VTS_03_2.VOB
Format : MPEG-PS
File size : 1 024 MiB
Duration : 39mn 43s
Overall bit rate : 3 604 Kbps

Video
ID : 224 (0xE0)
Format : MPEG Video
Format version : Version 2
Format profile : Main@Main
Format settings, BVOP : Yes
Format settings, Matrix : Default
Format settings, GOP : M=3, N=12
Duration : 39mn 42s
Bit rate mode : Variable
Bit rate : 2 893 Kbps
Nominal bit rate : 9 000 Kbps
Width : 720 pixels
Height : 576 pixels
Display aspect ratio : 4:3
Frame rate : 25.000 fps
Standard : PAL
Color space : YUV
Chroma subsampling : 4:2:0
Bit depth : 8 bits
Scan type : Interlaced
Scan order : Top Field First
Bits/(Pixel*Frame) : 0.279
Stream size : 822 MiB (80%)

Audio #1
ID : 128 (0x80)
Format : AC-3
Format/Info : Audio Coding 3
Mode extension : CM (complete main)
Duration : 39mn 43s
Bit rate mode : Constant
Bit rate : 448 Kbps
Channel(s) : 6 channels
Channel positions : Front: L C R, Side: L R, LFE
Sampling rate : 48.0 KHz
Video delay : -667ms
Stream size : 127 MiB (12%)

Audio #2
ID : 129 (0x81)
Format : AC-3
Format/Info : Audio Coding 3
Mode extension : CM (complete main)
Duration : 39mn 43s
Bit rate mode : Constant
Bit rate : 192 Kbps
Channel(s) : 2 channels
Channel positions : Front: L R
Sampling rate : 48.0 KHz
Video delay : -560ms
Stream size : 54.5 MiB (5%)
--------------------------------------------------------------------------
General
Complete name : E:\Файлю uTorrent\Завершенные файлы\Операция Ы\VIDEO_TS\VTS_07_1.VOB
Format : MPEG-PS
File size : 1 024 MiB
Duration : 44mn 33s
Overall bit rate : 3 213 Kbps

Video
ID : 224 (0xE0)
Format : MPEG Video
Format version : Version 2
Format profile : Main@Main
Format settings, BVOP : Yes
Format settings, Matrix : Default
Format settings, GOP : M=3, N=12
Duration : 44mn 33s
Bit rate mode : Variable
Bit rate : 3 149 Kbps
Nominal bit rate : 9 000 Kbps
Width : 720 pixels
Height : 576 pixels
Display aspect ratio : 4:3
Frame rate : 25.000 fps
Standard : PAL
Color space : YUV
Chroma subsampling : 4:2:0
Bit depth : 8 bits
Scan type : Interlaced
Scan order : Top Field First
Bits/(Pixel*Frame) : 0.304
Stream size : 1 004 MiB (98%)

Menu





pb.wtf



Скачать Операция «Ы» и другие приключения Шурика через торрент http://lostpic.net/images/90f36beac7899e00dc2203d1a5882553.jpg Скачать фильм Операция «Ы» и другие приключения Шурика через торрент бесплантно в хорошем качестве Описание: Фильм состоит из трех новелл, объединенных фигурой главного героя Шурика, попадающего в самые невероятные ситуации. В «Напарнике» ... 10 10 1
Info! Золотая раздача, скачанное не засчитывается.
Торрент: Зарегистрирован [2011-08-29 08:07] · скачан: 7 раз
Статус: √ проверено
Размер: 4.36 GB
Как cкачать? Как скачать Операция «Ы» и другие приключения Шурика через торрент | qTorrent

% Раздел Тема Автор DL S | L
# Наши фильмы (Blu-ray, BD-Remux, HDDVD) [ 16.28 GB ] Операция «Ы» и другие Шурика [1965 BD Remux Оригинальный] Бумер Скачать
1 | 0
Наши фильмы (HD, WEB-DL 720p, 1080p) [ 7.72 GB ] Операция «Ы» и другие Шурика [1965 BDRip 1080p] Original Seedtank Скачать
1 | 0
Фильмы (BDRip, HDrip-AVC) (48-60 fps) [ 2.87 GB ] Операция «Ы» и другие Шурика [1965 BDRip-AVC 60fps Original] от R.G. HD-Films Tiberiumsun69 Скачать
18 | 1
Наши фильмы (Blu-ray, BD-Remux, HDDVD) [ 20.05 GB ] Операция «Ы» и другие Шурика [1965 Blu-ray Оригинал] Бумер Скачать
1 | 0
Кино СССР [ 745 MB ] Операция «Ы» и другие Шурика [1965 СССР HDRip-AVC] dexter lex Скачать
1 | 0
Кино СССР [ 1.46 GB ] Операция «Ы» и другие Шурика [1965 DVDRip] roller tm Скачать
1 | 0
Кино СССР [ 743 MB ] Операция «Ы» и другие Шурика [1965 DVDRip] ZVEЯ :( Скачать
1 | 0


>> Регистрируемся здесь <<






Отзывы и комментарии о схеме читаем и пишем здесь: ---> Отзывы и комментарии о схеме

Новые благодарочки в телеграм довольных пользователей:
скриншот   скриншот   скриншот   скриншот   скриншот

29-08-2011 08:12 Операция «Ы» и другие приключения Шурика Скачать торрент  

pb.wtf



29-08-2011 10:05 Операция «Ы» и другие приключения Шурика Скачать торрент  

супер фильм!!!!!!!!! классика!!!!!!!!!!!!pb.wtf



29-08-2011 10:17 Операция «Ы» и другие приключения Шурика Скачать торрент  

=GAS=
а скорость где? сидов нет ни одного pb.wtf



29-08-2011 10:27 Операция «Ы» и другие приключения Шурика Скачать торрент  

Руслан78 писал(а):

=GAS=
а скорость где? сидов нет ни одного

Тут я, торрент надо было вырубить не надолго, щяс всё будет ОК!pb.wtf



    Дорогой пользователь! Огромная просьба, поблагодарите релизера, оцените раздачу и оставьте свои комментарий, если Вы скачали Операция «Ы» и другие приключения Шурика через торрент бесплатно! Внесите свою лепту в развитие PiratBit!
    Комментировать посты могут только пользователи прошедшие не сложную регистрацию
    Показать сообщения:    

    Операция «Ы» и другие приключения Шурика через торрент
    Скачать бесплатно Операция «Ы» и другие приключения Шурика
    Операция «Ы» и другие приключения Шурика скачать торрент
    Операция «Ы» и другие приключения Шурика смотреть онлайн
    Cкачать фильм Операция «Ы» и другие приключения Шурика бесплатно
    Операция «Ы» и другие приключения Шурика скачать торрент в хорошем качестве
    Операция «Ы» и другие приключения Шурика смотреть онлайн бесплатно в хорошем качестве


    Вы не можете начинать темы
    Вы не можете отвечать на сообщения
    Вы не можете редактировать свои сообщения
    Вы не можете удалять свои сообщения
    Вы не можете голосовать в опросах
    Вы не можете прикреплять файлы к сообщениям
    Вы можете скачивать файлы