2 сезон

iTunes

MVO

1

2 сезон

iTunes

iTunes

1 сезон

RePack

30

Новинка

ВАЖНО

ИГРА 18+

pack

RePack

MK11
pack

Легкие деньги

RePack

jed

RePack

fifa19

RePack

RDR2

RePack

NEED FOR SPEED™ PAYBACK

4 сезон

9 сезон

Бесстыжие 9 сезон

Все сериалы

все сериалы на PB.wtf

RePack

FAR CRY 5

Anonymous, доброе утро, мы не успеваем собрать деньги на оплату серверов за декабрь и январь, помогите нам пожалуйста в это трудное время. В качестве благодарности мы отключим Вам всю рекламу на сайте (укажите свой ник в строку Ваше имя)!

×
  
Magnet ссылка

Обитель зла 4: Жизнь после смерти 3D / Resident Evil: Afterlife 3D (Пол У. С. Андерсон) [2010 г., ужасы, фантастика, боевик, приключения, HDRip] Anaglyph, red'cyan pb.wtf

Обитель зла 4: Жизнь после смерти 3D через торрент pb.wtf

Размер: 2.01 GB | Добавлен: 9 лет 4 мес. назад | Торрент скачан:481 раз
Скачать  

30-08-2011 07:27 Обитель зла 4: Жизнь после смерти 3D Скачать торрент  

Обитель зла 4: Жизнь после смерти 3D / Resident Evil: Afterlife 3D

Год выпуска: 2010
Страна: Германия, Франция, Великобритания
Жанр: ужасы, фантастика, боевик, приключения
Продолжительность: 96 мин.
Перевод: Профессиональный (полное дублирование) [Лицензия]

Режиссер: Пол У. С. Андерсон
Продюссер: Пол У. С. Андерсон, Джереми Болт, Дон Кармоди
Сценарий: Пол У. С. Андерсон

Бюджет: $60 000 000

R
-Лицам до 17 лет обязательно присутствие взрослого
Мировой рейтинг IMDB 5.80 (46 481)


В ролях: Милла Йовович (Alice), Эли Лартер (Claire Redfield), Вентворт Миллер (Chris Redfield), Ким Коутс (Bennett), Шоун Робертс (Albert Wesker), Серджо Перис-Менчета (Angel), Спенсер Лок (K-Mart), Борис Коджо (Luther), Сиенна Гиллори (Jill Valentine), Кейси Барнфилд (Crystal), Норман Енг (Kim Yong), Фульвио Чечере (Wendell)

Описание: Элис продолжает свой путь в мире, поражённом вирусной инфекцией, превращающей людей в нежить. Героиня ищет оставшихся в живых, чтобы вывести их в безопасное место. Её смертельная битва с корпорацией Амбрелла выходит на новый уровень, когда она вдруг получает неожиданную помощь от старого друга. Он обещает привести Элис в безопасную зону в Лос-Анджелесе, но как только они попадают в город, то видят тысячи и тысячи заражённых и оказываются в смертельной ловушке.

Доп. информация: Anaglyph, red'cyan
Внимание! Для просмотра нужны анаглифные очки красно-синезеленые

Порядок ракурсов: красный слева

Качество: HDRip
Формат: AVI
Видео кодек: XviD
Аудио кодек: AC3
Видео: XviD; 1280x534; 2,35:1; 23,976 кадр/сек; 2505 Кбит/сек
Аудио: Rus; AC-3; 48,0 КГц; 448 Кбит/сек; 2ch(Front: L R)
Субтитры: Отсутствуют
[Общее
Полное имя :Resident Evil Afterlife 3D_AnRC.avi
Формат : AVI
Формат/Информация : Audio Video Interleave
Профиль формата : OpenDML
Размер файла : 2,01 Гбайт
Продолжительность : 1 ч. 36 м.
Общий поток : 2966 Кбит/сек
Библиотека кодирования : VirtualDub build 32839/release

Видео
Идентификатор : 0
Формат : MPEG-4 Visual
Профиль формата : Advanced Simple@L5
Параметр BVOP формата : 2
Параметр QPel формата : Нет
Параметр GMC формата : Без точки перехода
Параметр матрицы формата : Default (H.263)
Режим смешивания : Сжатый битовый поток
Идентификатор кодека : XVID
Идентификатор кодека/Подсказка : XviD
Продолжительность : 1 ч. 36 м.
Битрейт : 2505 Кбит/сек
Ширина : 1280 пикс.
Высота : 534 пикс.
Соотношение сторон : 2,40:1
Частота кадров : 23,976 кадр/сек
Цветовое пространство : YUV
Подвыборка цветности : 4:2:0
Битовая глубина : 8 бит
Тип развёртки : Прогрессивная
Метод сжатия : С потерями
Бит/(Пиксели*Кадры) : 0.153
Размер потока : 1,70 Гбайт (84%)
Библиотека кодирования : XviD 1.2.1 (UTC 2008-12-04)

Аудио
Идентификатор : 1
Формат : AC-3
Формат/Информация : Audio Coding 3
Расширение режима : CM (complete main)
Идентификатор кодека : 2000
Продолжительность : 1 ч. 36 м.
Вид битрейта : Постоянный
Битрейт : 448 Кбит/сек
Каналы : 2 канала
Расположение каналов : Front: L R
Частота : 48,0 КГц
Битовая глубина : 16 бит
Метод сжатия : С потерями
Размер потока : 310 Мбайт (15%)
Выравнивание : Соединение по промежуткам
Продолжительность промежутка : 42 мс. (1,00 видеокадр)
Время предзагрузки промежутка : 512 ms]



pb.wtf



Скачать Обитель зла 4: Жизнь после смерти 3D через торрент http://i31.fastpic.ru/big/2011/0830/27/22e299f71833b39b83565d3494c37b27.jpeg Скачать фильм Обитель зла 4: Жизнь после смерти 3D через торрент бесплантно в хорошем качестве Описание: Элис продолжает свой путь в мире, поражённом вирусной инфекцией, превращающей людей в нежить. Героиня ищет оставшихся в живых, ... 10 10 4
Info! Золотая раздача, скачанное не засчитывается.
Торрент: Зарегистрирован [2011-08-30 07:27] · скачан: 481 раз
Статус: √ проверено
Размер: 2.01 GB
Как cкачать? Как скачать Обитель зла 4: Жизнь после смерти 3D через торрент | UTorrent

28-11-2019 20:33  

Отключить всю рекламу на сайте

    Дорогой пользователь! Огромная просьба, поблагодарите релизера, оцените раздачу и оставьте свои комментарий, если Вы скачали Обитель зла 4: Жизнь после смерти 3D через торрент бесплатно! Внесите свою лепту в развитие PiratBit!
    Комментировать посты могут только пользователи прошедшие не сложную регистрацию
    Показать сообщения:    

    Обитель зла 4: Жизнь после смерти 3D через торрент
    Скачать бесплатно Обитель зла 4: Жизнь после смерти 3D
    Обитель зла 4: Жизнь после смерти 3D скачать торрент
    Обитель зла 4: Жизнь после смерти 3D смотреть онлайн
    Cкачать фильм Обитель зла 4: Жизнь после смерти 3D бесплатно
    Обитель зла 4: Жизнь после смерти 3D скачать торрент в хорошем качестве
    Обитель зла 4: Жизнь после смерти 3D смотреть онлайн бесплатно в хорошем качестве


    Вы не можете начинать темы
    Вы не можете отвечать на сообщения
    Вы не можете редактировать свои сообщения
    Вы не можете удалять свои сообщения
    Вы не можете голосовать в опросах
    Вы не можете прикреплять файлы к сообщениям
    Вы можете скачивать файлы