Ссылка на приватное зеркало нашего сайта всего за 1$. Внимание количество ограничено!!!

2 сезон

iTunes

1 сезон

1

2 сезон

2 сезон

iTunes

1 сезон

RePack

30

Новинка

ВАЖНО

ИГРА 18+

pack

RePack

MK11
pack

Забери бонус

RePack

jed

!!Акция!!

Alien_Rage

RePack

fifa19

RePack

Assassins Creed: Odyssey

RePack

NEED FOR SPEED™ PAYBACK

4 сезон

9 сезон

Бесстыжие 9 сезон

Все сериалы

все сериалы на PB.wtf

RePack

FAR CRY 5
  

Бездна / The Deep / Сезон: 1 / Серии: 1-4 (5) (Джим О'Хенлон, Колм МакКарти) [2010, триллер, драма, HDRip], Rus, Eng / Novafilm pb.wtf

Бездна через торрент pb.wtf

Размер: 2.35 GB | Добавлен: 9 лет 2 мес. назад | Торрент скачан:6 раз
Скачать  

30-08-2011 11:04 Бездна Скачать торрент  

Бездна / The Deep Год выпуска: 2010
Страна: Англия
Жанр: триллер, драма
Продолжительность: 57 минут
Перевод: профессиональный двухголосый закадровый (Novafilm)
Перевод 2: оригинал (английский)
Русские субтитры: нет
Субтитры: нет
Режиссёр: Джим О'Хенлон, Колм МакКарти
В ролях: Орла Брейди, Горан Виснич, Джеймс Несбит, Минни Драйвер, Вера Филатова и др.
Описание: Группа океанографов на подлодке «Орфей» ищет редкие микроорганизмы в Северном Ледовитом океане, возле хребта Ломоносова. Предположительно, микроорганизмы могут стать новым источником биологического топлива. Но подлодка внезапно терпит крушение и ученые оказываются взаперти под толщей воды, на глубине в тысячи метров.
Доп. информация: Перевод: Марина З.
Подготовка видео: vadimdexter
Монтаж и работа со звуком: Alucard

Сэмпл: http://narod.ru/disk/17331363001/the.deep.s01e01.bd...film.tv.avi.html

Качество: HDRip
Формат: AVI
Видео кодек: XviD
Аудио кодек: MP3
Видео: 720Ч400 (1.80:1), 25 fps, XviD build 63 1199 kbps avg, 0.17 bit/pixel
Аудио: 48 kHz, MPEG Layer 3, 2 ch, ~128.00 kbps avg / Russian /
Аудио 2: 48 kHz, MPEG Layer 3, 2 ch, ~128.00 kbps avg / English /
Релиз:
General
Complete name : ...\the.deep.s01.bdrip.rus.eng.novafilm\the.deep.s01e01.bdrip.rus.eng.novafilm.tv.avi
Format : AVI
Format/Info : Audio Video Interleave
File size : 601 MiB
Duration : 57mn 8s
Overall bit rate : 1 471 Kbps
Writing application : VirtualDubMod 1.5.10.2 (build 2542/release)
Writing library : VirtualDubMod build 2542/release
Video
ID : 0
Format : MPEG-4 Visual
Format profile : Advanced Simple@L5
Format settings, BVOP : 2
Format settings, QPel : No
Format settings, GMC : No warppoints
Format settings, Matrix : Default (H.263)
Codec ID : XVID
Codec ID/Hint : XviD
Duration : 57mn 8s
Bit rate : 1 200 Kbps
Width : 720 pixels
Height : 400 pixels
Display aspect ratio : 16:9
Frame rate : 25.000 fps
Color space : YUV
Chroma subsampling : 4:2:0
Bit depth : 8 bits
Scan type : Progressive
Compression mode : Lossy
Bits/(Pixel*Frame) : 0.167
Stream size : 490 MiB (82%)
Writing library : XviD 63
Audio #1
ID : 1
Format : MPEG Audio
Format version : Version 1
Format profile : Layer 3
Mode : Joint stereo
Mode extension : MS Stereo
Codec ID : 55
Codec ID/Hint : MP3
Duration : 57mn 8s
Bit rate mode : Constant
Bit rate : 128 Kbps
Channel(s) : 2 channels
Sampling rate : 48.0 KHz
Compression mode : Lossy
Stream size : 52.3 MiB (9%)
Alignment : Aligned on interleaves
Interleave, duration : 40 ms (1.00 video frame)
Interleave, preload duration : 504 ms
Audio #2
ID : 2
Format : MPEG Audio
Format version : Version 1
Format profile : Layer 3
Mode : Joint stereo
Codec ID : 55
Codec ID/Hint : MP3
Duration : 57mn 8s
Bit rate mode : Constant
Bit rate : 128 Kbps
Channel(s) : 2 channels
Sampling rate : 48.0 KHz
Compression mode : Lossy
Stream size : 52.3 MiB (9%)
Alignment : Aligned on interleaves
Interleave, duration : 40 ms (1.00 video frame)
Interleave, preload duration : 504 ms
pb.wtf



Скачать Бездна через торрент http://lostpic.net/images/8ffb2ebd44b231362bad9236088dd2a8.jpg Скачать фильм Бездна через торрент бесплантно в хорошем качестве Описание: Группа океанографов на подлодке «Орфей» ищет редкие микроорганизмы в Северном Ледовитом океане, возле хребта Ломоносова. ... 4.8 10 4
Info! Золотая раздача, скачанное не засчитывается.
Торрент: Зарегистрирован [2011-09-12 19:05] · скачан: 6 раз
Статус: √ проверено
Размер: 2.35 GB
Как cкачать? Как скачать Бездна через торрент | qTorrent



Последний раз редактировалось: Stargate_Universe (2011-09-12 19:05), всего редактировалось 1 раз

28-11-2019 20:33  

Отключить всю рекламу на сайте

11-09-2011 11:52 Бездна Скачать торрент  

дайте пожалуйста продолжение сериала The deeppb.wtf



    Дорогой пользователь! Огромная просьба, поблагодарите релизера, оцените раздачу и оставьте свои комментарий, если Вы скачали Бездна через торрент бесплатно! Внесите свою лепту в развитие PiratBit!
    Комментировать посты могут только пользователи прошедшие не сложную регистрацию
    Показать сообщения:    

    Бездна через торрент
    Скачать бесплатно Бездна
    Бездна скачать торрент
    Бездна смотреть онлайн
    Cкачать фильм Бездна бесплатно
    Бездна скачать торрент в хорошем качестве
    Бездна смотреть онлайн бесплатно в хорошем качестве


    Вы не можете начинать темы
    Вы не можете отвечать на сообщения
    Вы не можете редактировать свои сообщения
    Вы не можете удалять свои сообщения
    Вы не можете голосовать в опросах
    Вы не можете прикреплять файлы к сообщениям
    Вы можете скачивать файлы