1 сезон

1 сезон

iTunes

1

КиноПоиск HD

Кинопоиск HD

iTunes

13

1 сезон

RePack

30

Новинка

ВАЖНО

ИГРА 18+

pack

RePack

MK11
pack

Легкие деньги

RePack

jed

RePack

fifa19

RePack

RDR2

RePack

NEED FOR SPEED™ PAYBACK

4 сезон

9 сезон

Бесстыжие 9 сезон

Все сериалы

все сериалы на PB.wtf

RePack

FAR CRY 5
  
Magnet ссылка

Крип / Урод / Creep (Кристофер Смит / Christopher Smith) [2004 г., ужасы, триллер, детектив, DVDRip-AVC] DVO + Original (eng) + Sub (rus, eng) pb.wtf

Крип через торрент pb.wtf

Размер: 1.71 GB | Добавлен: 9 лет 7 мес. назад | Торрент скачан:172 раза
Скачать  

30-08-2011 11:27 Крип Скачать торрент  

Крип / Урод / Creep

Год выпуска: 2004
Страна: Германия, Великобритания
Жанр: ужасы, триллер, детектив
Продолжительность: 01:21:42
Перевод: Профессиональный (двухголосый)
+Оригинал
Cубтитры: Rus / Eng (вшитые, отключаемые)

Режиссер: Кристофер Смит / Christopher Smith

В ролях: Вэс Блэквуд, Кен Кэмпбелл, Кэтрин Гилфизер, Франка Потенте, Грант Иббс, Джо Андерсон, Джереми Шеффилд, Шон Де Вринд, Йен Дункан, Дебора Уэстон

Описание: Лондон. Холодная зимняя полночь. Не поймав такси в Уэст-Энде, Кейт решает поехать на метро. Немного подвыпившая, она ждет последнего поезда, но засыпает, и пробуждается в тот момент, когда поезд уже уходит. Охваченная паникой, она пытается оставить станцию, но понимает, что заперта. В этот момент к платформе подъезжает пустой поезд. Ее надежда поскорей наконец-то вернуться домой оборачивается тревогой, когда на полпути через туннель поезд останавливается и её вагон погружается в темноту. Кейт оказывается перед первым из ряда касающих событий — событий, которые разрушат её нервы и шикарное самообладание. Она не одна в лабиринте укромных уголков и сырых трещин. В черном как смоль лабиринте скрывается что-то невообразимое. Кое-что, что не оставит Кейт в покое…



[ [/url]

Качество: DVDRip-AVC
Формат: MKV
Видео кодек: AVC
Аудио кодек: AC3
Видео: AVC, 720x576@1024x576 (16:9), 25.000fps, 2174Kbps, 0.210bit/pixel
Аудио #1: (Russian) AC3, 48kHz, 6ch, 384Kbps
Аудио #2: (English) AC3, 48kHz, 6ch, 384Kbps
Субтитры #1: (Russian) UTF-8
Субтитры #2: (English) UTF-8
Complete name Крип [Creep] '04 [DVDRip-AVC].mkv
Format : Matroska
File size : 1.71 GiB
Duration : 1h 21mn
Overall bit rate : 3 002 Kbps
Movie name : Creep | Крип | Урод (Christopher Smith / Кристофер Смит) 2004
Encoded date : UTC 2011-07-11 12:04:10
Writing application : mkvmerge v3.2.0 ('Beginnings') built on Feb 12 2010 16:46:17
Writing library : libebml v0.7.9 + libmatroska v0.8.1
Attachment : Yes / Yes / Yes

Video
ID : 1
Format : AVC
Format/Info : Advanced Video Codec
Format profile : High@L4.1
Format settings, CABAC : Yes
Format settings, ReFrames : 11 frames
Codec ID : V_MPEG4/ISO/AVC
Duration : 1h 21mn
Bit rate : 2 175 Kbps
Width : 720 pixels
Height : 576 pixels
Display aspect ratio : 16:9
Frame rate : 25.000 fps
Standard : PAL
Color space : YUV
Chroma subsampling : 4:2:0
Bit depth : 8 bits
Scan type : Progressive
Bits/(Pixel*Frame) : 0.210
Stream size : 1.24 GiB (72%)
Title : x264 DVDRip (by Just_TeMa)
Writing library : x264 core 115 r2008 4c552d8
Encoding settings : cabac=1 / ref=11 / deblock=1:-2:-1 / analyse=0x3:0x133 / me=umh / subme=9 / psy=1 / psy_rd=1.10:0.00 / mixed_ref=1 / me_range=38 / chroma_me=1 / trellis=1 / 8x8dct=1 / cqm=0 / deadzone=21,11 / fast_pskip=0 / chroma_qp_offset=-3 / threads=3 / sliced_threads=0 / nr=0 / decimate=1 / interlaced=0 / bluray_compat=0 / constrained_intra=0 / bframes=12 / b_pyramid=2 / b_adapt=2 / b_bias=0 / direct=3 / weightb=1 / open_gop=0 / weightp=2 / keyint=250 / keyint_min=25 / scenecut=40 / intra_refresh=0 / rc=crf / mbtree=0 / crf=19.2 / qcomp=0.65 / qpmin=0 / qpmax=69 / qpstep=4 / ip_ratio=1.40 / pb_ratio=1.30 / aq=1:0.90
Language : English

Audio #1
ID : 2
Format : AC-3
Format/Info : Audio Coding 3
Mode extension : CM (complete main)
Codec ID : A_AC3
Duration : 1h 21mn
Bit rate mode : Constant
Bit rate : 384 Kbps
Channel(s) : 6 channels
Channel positions : Front: L C R, Side: L R, LFE
Sampling rate : 48.0 KHz
Bit depth : 16 bits
Compression mode : Lossy
Stream size : 224 MiB (13%)
Title : DVO
Language : Russian

Audio #2
ID : 3
Format : AC-3
Format/Info : Audio Coding 3
Mode extension : CM (complete main)
Codec ID : A_AC3
Duration : 1h 21mn
Bit rate mode : Constant
Bit rate : 384 Kbps
Channel(s) : 6 channels
Channel positions : Front: L C R, Side: L R, LFE
Sampling rate : 48.0 KHz
Bit depth : 16 bits
Compression mode : Lossy
Stream size : 224 MiB (13%)
Title : Original
Language : English

Text #1
ID : 4
Format : UTF-8
Codec ID : S_TEXT/UTF8
Codec ID/Info : UTF-8 Plain Text
Language : Russian

Text #2
ID : 5
Format : UTF-8
Codec ID : S_TEXT/UTF8
Codec ID/Info : UTF-8 Plain Text
Language : English

Menu
00:00:00.000 : en:Chapter 1
00:02:36.600 : en:Chapter 2
00:08:21.960 : en:Chapter 3
00:13:47.880 : en:Chapter 4
00:17:11.760 : en:Chapter 5
00:20:39.120 : en:Chapter 6
00:24:00.960 : en:Chapter 7
00:28:14.280 : en:Chapter 8
00:30:34.800 : en:Chapter 9
00:33:50.040 : en:Chapter 10
00:38:52.200 : en:Chapter 11
00:44:39.000 : en:Chapter 12
00:50:16.320 : en:Chapter 13
00:55:11.280 : en:Chapter 14
00:59:58.200 : en:Chapter 15
01:05:35.160 : en:Chapter 16
01:09:49.680 : en:Chapter 17
01:15:13.680 : en:Chapter 18
01:21:41.520 : en:Chapter 19



pb.wtf



Скачать Крип через торрент http://i1.imageban.ru/out/2011/08/30/c5914e81310a32ad46f800f300fda780.jpg Скачать фильм Крип через торрент бесплантно в хорошем качестве Описание: Лондон. Холодная зимняя полночь. Не поймав такси в Уэст-Энде, Кейт решает поехать на метро. Немного подвыпившая, она ждет ... 10 10 2
Info! Золотая раздача, скачанное не засчитывается.
Торрент: Зарегистрирован [2011-08-30 11:27] · скачан: 172 раз
Статус: √ проверено
Размер: 1.71 GB
Как cкачать? Как скачать Крип через торрент | UTorrent



Последний раз редактировалось: smaster (2011-09-03 13:37), всего редактировалось 1 раз

28-11-2019 20:33  

Отключить всю рекламу на сайте

30-08-2011 14:17 Крип Скачать торрент  

Как фильм отпишитесь кто смотрел.pb.wtf



30-08-2011 14:26 Крип Скачать торрент  

фильм супер мне понравилсяpb.wtf



30-08-2011 14:26 Крип Скачать торрент  

А за такой сэмпл руки нахер оторватьpb.wtf



30-08-2011 14:28 Крип Скачать торрент  

andr1313 писал(а):

фильм супер мне понравился

СПС, качнём посмотримpb.wtf



30-08-2011 14:39 Крип Скачать торрент  

Gorge*
Приятного просмотраpb.wtf



    Дорогой пользователь! Огромная просьба, поблагодарите релизера, оцените раздачу и оставьте свои комментарий, если Вы скачали Крип через торрент бесплатно! Внесите свою лепту в развитие PiratBit!
    Комментировать посты могут только пользователи прошедшие не сложную регистрацию
    Показать сообщения:    

    Крип через торрент
    Скачать бесплатно Крип
    Крип скачать торрент
    Крип смотреть онлайн
    Cкачать фильм Крип бесплатно
    Крип скачать торрент в хорошем качестве
    Крип смотреть онлайн бесплатно в хорошем качестве


    Вы не можете начинать темы
    Вы не можете отвечать на сообщения
    Вы не можете редактировать свои сообщения
    Вы не можете удалять свои сообщения
    Вы не можете голосовать в опросах
    Вы не можете прикреплять файлы к сообщениям
    Вы можете скачивать файлы