Ссылка на приватное зеркало нашего сайта всего за 1$. Внимание количество ограничено!!!

2 сезон

iTunes

1 сезон

1

iTunes

iTunes

iTunes

1 сезон

RePack

30

ИГРА 18+

pack

ВАЖНО

!!Акция!!

Alien_RageХит недели

RePack

MK11
pack

Забери бонус

RePack

jed

!!Акция!!

Alien_Rage

RePack

fifa19

RePack

Assassins Creed: Odyssey

RePack

NEED FOR SPEED™ PAYBACK

4 сезон

9 сезон

Бесстыжие 9 сезон

Все сериалы

все сериалы на PB.wtf

RePack

FAR CRY 5
  

Ханна. Совершенное оружие / Hanna (Джо Райт / Joe Wright) [2011, США, Германия, Великобритания, боевик, триллер, криминал, детектив, BDRip1080p] DUB Sub rus + original eng pb.wtf

Ханна. Совершенное оружие через торрент pb.wtf

Размер: 15.1 GB | Добавлен: 9 лет 1 мес. назад | Торрент скачан:9 раз
Скачать  

30-08-2011 15:44 Ханна. Совершенное оружие Скачать торрент  

Ханна. Совершенное оружие / Hanna
Год выпуска: 2011
Страна: США, Германия, Великобритания
Жанр: боевик, триллер, криминал, детектив
Продолжительность: 01:51:02
Перевод: Профессиональный (полное дублирование)
Русские субтитры: есть

Режиссер: Джо Райт / Joe Wright
В ролях: Сирша Ронан, Эрик Бана, Кейт Бланшетт, Том Холландер, Пэрис Эрроусмит, Оливия Уильямс, Джейсон Флеминг, Джон Макмилла, Тим Бекманн, Вики Крипс

Описание: Хрупкая на первый взгляд Ханна - идеальный солдат. Тайна ее рождения ревностно охраняется американским правительством. Ее миссия - отомстить бывшим работодателям отца, некогда секретного агента. Спецслужбы всего мира выходят на след девочки-убийцы. Охота начинается...
««Она - совершенное оружие»»

Рип от: FraMeSToR!
Качество:BDRip
Формат:MKV
Видео кодек:x264
Аудио кодек: DTS
Видео:1920x800 at 23.976 fps,@L4.1 x264, - 16,400 Kbps
Аудио#1: Russian: 48 kHz, DTS 5.1 @ 1510 Kbps - Дубляж
Аудио#2: English: 48 kHz, DTS 5.1 @ 1510 Kbps - Original
Аудио#3: English: 48 kHz, Vorbis 2.0 @ 64 Kbps - Commentary
Субтитры: русские (надписи и пр.), русские (полные), английские (SDH), английские


Hanna.2011.BluRay.1080p.DTS.5.1.x264.dxva-FraMeSToR.mkv
Формат : Matroska
Размер файла : 15,1 Гбайт
Продолжительность : 1 ч. 51 м.
Общий поток : 19,5 Мбит/сек
Название фильма : Hanna (2011)
Дата кодирования : UTC 2011-08-29 19:09:04
Программа кодирования : mkvmerge v4.9.1 ('Ich will') сборка от Jul 11 2011 23:53:15
Библиотека кодирования : libebml v1.2.1 + libmatroska v1.1.1
Видео
Идентификатор : 1
Формат : AVC
Формат/Информация : Advanced Video Codec
Профиль формата : High@L4.1
Параметр CABAC формата : Да
Параметр ReFrames формата : 5 кадров
Идентификатор кодека : V_MPEG4/ISO/AVC
Продолжительность : 1 ч. 51 м.
Битрейт : 16,4 Мбит/сек
Ширина : 1920 пикс.
Высота : 800 пикс.
Соотношение сторон : 2,40:1
Частота кадров : 23,976 кадр/сек
Цветовое пространство : YUV
Подвыборка цветности : 4:2:0
Битовая глубина : 8 бит
Тип развёртки : Прогрессивная
Бит/(Пиксели*Кадры) : 0.445
Размер потока : 12,4 Гбайт (82%)
Библиотека кодирования : x264 core 116 r2057 0ba8a9c
Настройки программы : cabac=1 / ref=5 / deblock=1:-2:-2 / analyse=0x3:0x133 / me=umh / subme=11 / psy=1 / psy_rd=1.00:0.10 / mixed_ref=1 / me_range=48 / chroma_me=1 / trellis=2 / 8x8dct=1 / cqm=0 / deadzone=21,11 / fast_pskip=0 / chroma_qp_offset=-3 / threads=12 / sliced_threads=0 / slices=4 / nr=0 / decimate=1 / interlaced=0 / bluray_compat=0 / constrained_intra=0 / bframes=12 / b_pyramid=2 / b_adapt=2 / b_bias=0 / direct=3 / weightb=1 / open_gop=0 / weightp=2 / keyint=250 / keyint_min=23 / scenecut=40 / intra_refresh=0 / rc_lookahead=60 / rc=2pass / mbtree=1 / bitrate=16384 / ratetol=1.0 / qcomp=0.60 / qpmin=0 / qpmax=69 / qpstep=4 / cplxblur=20.0 / qblur=0.5 / ip_ratio=1.40 / aq=1:0.80
Язык : English
Основные цвета : BT.709-5, BT.1361, IEC 61966-2-4, SMPTE RP177
Характеристики трансфера : BT.709-5, BT.1361
Коэффициенты матрицы : BT.709-5, BT.1361, IEC 61966-2-4 709, SMPTE RP177
Аудио #1
Идентификатор : 2
Формат : DTS
Формат/Информация : Digital Theater Systems
Идентификатор кодека : A_DTS
Продолжительность : 1 ч. 51 м.
Вид битрейта : Постоянный
Битрейт : 1510 Кбит/сек
Каналы : 6 каналов
Расположение каналов : Front: L C R, Side: L R, LFE
Частота : 48,0 КГц
Битовая глубина : 24 бит
Метод сжатия : С потерями
Размер потока : 1,17 Гбайт (8%)
Заголовок : DTS 5.1 @ 1510 Kbps [Дубляж]
Язык : Russian
Аудио #2
Идентификатор : 3
Формат : DTS
Формат/Информация : Digital Theater Systems
Идентификатор кодека : A_DTS
Продолжительность : 1 ч. 51 м.
Вид битрейта : Постоянный
Битрейт : 1510 Кбит/сек
Каналы : 6 каналов
Расположение каналов : Front: L C R, Side: L R, LFE
Частота : 48,0 КГц
Битовая глубина : 24 бит
Метод сжатия : С потерями
Размер потока : 1,17 Гбайт (8%)
Заголовок : DTS 5.1 @ 1510 Kbps [Original]
Язык : English
Аудио #3
Идентификатор : 4
Формат : Vorbis
Параметр Floor формата : 1
Идентификатор кодека : A_VORBIS
Продолжительность : 1 ч. 51 м.
Вид битрейта : Постоянный
Битрейт : 64,0 Кбит/сек
Каналы : 2 канала
Частота : 48,0 КГц
Метод сжатия : С потерями
Размер потока : 50,8 Мбайт (0%)
Заголовок : Vorbis 2.0 @ 64 Kbps [Commentary]
Библиотека кодирования : libVorbis (Schaufenugget) (20101101 (Schaufenugget))
Язык : English
Текст #1
Идентификатор : 5
Формат : UTF-8
Идентификатор кодека : S_TEXT/UTF8
Идентификатор кодека/Информация : UTF-8 Plain Text
Заголовок : Forced
Язык : Russian
Текст #2
Идентификатор : 6
Формат : UTF-8
Идентификатор кодека : S_TEXT/UTF8
Идентификатор кодека/Информация : UTF-8 Plain Text
Заголовок : Full
Язык : Russian
Текст #3
Идентификатор : 7
Формат : UTF-8
Идентификатор кодека : S_TEXT/UTF8
Идентификатор кодека/Информация : UTF-8 Plain Text
Заголовок : Full
Язык : English
Текст #4
Идентификатор : 8
Формат : UTF-8
Идентификатор кодека : S_TEXT/UTF8
Идентификатор кодека/Информация : UTF-8 Plain Text
Заголовок : SDH
Язык : English
Текст #5
Идентификатор : 9
Формат : PGS
Режим смешивания : zlib
Идентификатор кодека : S_HDMV/PGS
Идентификатор кодека/Информация : The same subtitle format used on BDs/HD-DVDs
Язык : English
Текст #6
Идентификатор : 10
Формат : PGS
Режим смешивания : zlib
Идентификатор кодека : S_HDMV/PGS
Идентификатор кодека/Информация : The same subtitle format used on BDs/HD-DVDs
Язык : Spanish
Текст #7
Идентификатор : 11
Формат : PGS
Режим смешивания : zlib
Идентификатор кодека : S_HDMV/PGS
Идентификатор кодека/Информация : The same subtitle format used on BDs/HD-DVDs
Язык : French
Меню
00:00:00.000 : en:CHAPTER01
00:05:21.947 : en:CHAPTER02
00:10:54.362 : en:CHAPTER03
00:15:08.741 : en:CHAPTER04
00:19:59.907 : en:CHAPTER05
00:24:30.594 : en:CHAPTER06
00:30:07.556 : en:CHAPTER07
00:35:18.074 : en:CHAPTER08
00:41:34.534 : en:CHAPTER09
00:46:17.108 : en:CHAPTER10
00:50:06.170 : en:CHAPTER11
00:55:35.916 : en:CHAPTER12
01:00:43.390 : en:CHAPTER13
01:04:27.655 : en:CHAPTER14
01:11:47.678 : en:CHAPTER15
01:19:58.711 : en:CHAPTER16
01:24:50.627 : en:CHAPTER17
01:29:35.078 : en:CHAPTER18
01:36:45.842 : en:CHAPTER09
01:43:25.199 : en:CHAPTER20

• Многие экшн-сцены фильма представляют собой тщательно проработанные сверхдлинные планы. Постановка таких эпизодов – «конек» Райта. Режиссер сообщил, что специально пригласил к сотрудничеству операторов стедикама, работавших на «Русском ковчеге» Александра Сокурова (как известно, данная экспериментальная российская кинопостановка - это единый технически изощренный 99-минутный длинный план).
• Оригинальный саундтрек к «Ханне» напишет дуэт The Chemical Brothers.
• Дэнни Бойл разрабатывал проект в начале 2009.
• По слухам, Альфонсо Куарон мог поставить фильм.
• Сценарий фильма попал в «Черный список» (Black List) 2006 и 2009 гг.
• Сет Локхед написал сценарий в 2006 году.

pb.wtf



Скачать Ханна. Совершенное оружие через торрент http://i30.fastpic.ru/big/2011/0829/8e/01604a25299c6bbb9040c76a6182db8e.png Скачать фильм Ханна. Совершенное оружие через торрент бесплантно в хорошем качестве Описание: Хрупкая на первый взгляд Ханна - идеальный солдат. Тайна ее рождения ревностно охраняется американским правительством. Ее миссия ... 5 10 2
Info! Золотая раздача, скачанное не засчитывается.
Торрент: Зарегистрирован [2011-08-30 15:44] · скачан: 9 раз
Статус: √ проверено
Размер: 15.1 GB
Как cкачать? Как скачать Ханна. Совершенное оружие через торрент | qTorrent

% Раздел Тема Автор DL S | L
Фильмы (Blu-ray, BD-Remux, HDDVD) [ 27.85 GB ] Ханна. Совершенное оружие / Hanna [2011 Германия BDRemux 1080p] DUB Sub Rus + Original Eng walle Скачать
1 | 0

28-11-2019 20:33  

Отключить всю рекламу на сайте

    Дорогой пользователь! Огромная просьба, поблагодарите релизера, оцените раздачу и оставьте свои комментарий, если Вы скачали Ханна. Совершенное оружие через торрент бесплатно! Внесите свою лепту в развитие PiratBit!
    Комментировать посты могут только пользователи прошедшие не сложную регистрацию
    Показать сообщения:    

    Ханна. Совершенное оружие через торрент
    Скачать бесплатно Ханна. Совершенное оружие
    Ханна. Совершенное оружие скачать торрент
    Ханна. Совершенное оружие смотреть онлайн
    Cкачать фильм Ханна. Совершенное оружие бесплатно
    Ханна. Совершенное оружие скачать торрент в хорошем качестве
    Ханна. Совершенное оружие смотреть онлайн бесплатно в хорошем качестве


    Вы не можете начинать темы
    Вы не можете отвечать на сообщения
    Вы не можете редактировать свои сообщения
    Вы не можете удалять свои сообщения
    Вы не можете голосовать в опросах
    Вы не можете прикреплять файлы к сообщениям
    Вы можете скачивать файлы