2 сезон

iTunes

MVO

1

2 сезон

iTunes

iTunes

1 сезон

RePack

30

Новинка

ВАЖНО

ИГРА 18+

pack

RePack

MK11
pack

Легкие деньги

RePack

jed

RePack

fifa19

RePack

RDR2

RePack

NEED FOR SPEED™ PAYBACK

4 сезон

9 сезон

Бесстыжие 9 сезон

Все сериалы

все сериалы на PB.wtf

RePack

FAR CRY 5

Anonymous, доброе утро, мы не успеваем собрать деньги на оплату серверов за декабрь и январь, помогите нам пожалуйста в это трудное время. В качестве благодарности мы отключим Вам всю рекламу на сайте (укажите свой ник в строку Ваше имя)!

×
  
Magnet ссылка

Ёлки (Тимур Бекмамбетов,​ Александр Войтинский, Дмитрий Киселев) [2010 г., Комедия, BDRip-AVC] pb.wtf

Ёлки через торрент pb.wtf

Размер: 1.71 GB | Добавлен: 9 лет 4 мес. назад | Торрент скачан:483 раза
Скачать  

30-08-2011 16:52 Ёлки Скачать торрент  


Год выпуска: 2010
Страна: Россия
Жанр: Комедия
Продолжительность: 01:28:58
Перевод: Не требуется

Режиссер: Тимур Бекмамбетов, Александр Войтинский, Дмитрий Киселев
Продюссер: Тимур Бекмамбетов, Александра Ремизова, Ива Стромилова
Сценарий: Тимур Бекмамбетов, Андрей Курейчик, Дмитрий Алейников

В ролях: Сергей Светлаков, Вера Брежнева, Екатерина Вилкова, Артур Смольянинов, Сергей Гармаш, Иван Ургант, Виктор Вержбицкий

Описание:
События самой новогодней комедии ЁЛКИ происходят в 11 городах: Калининграде, Казани, Перми, Уфе, Бавлах, Екатеринбурге, Красноярске, Якутске, Новосибирске, Санкт-Петербурге и Москве. Герои фильма — таксист и поп-дива, бизнесмен и актер, сноубордист и лыжник, студент и пенсионерка, пожарный и директриса, вор и милиционер, гастарбайтер и президент России. Все они оказываются в самый канун Нового года в очень непростой ситуации, выйти из которой им поможет только чудо… или Теория шести рукопожатий, согласно которой каждый человек на земле знает другого через шесть знакомых.


Качество: BDRip-AVC
Формат: MKV
Видео кодек: H.264
Аудио кодек: AC3
Видео: H.264, High@L4.1, 2361 Kbps, 1000x432 pix, 23.976 fps
Аудио: 48.0 KHz, AC3, 6 channels, 384 Kbps

Релиз от:
General
Unique ID : 254490754122293698054198628169022319538 (0xBF7522EAAD38DAA1A09E7A9F154E2BB2)
Complete name : J:\BDRip-AVC\Ёлки (2010).mkv
Format : Matroska
Format version : Version 2
File size : 1.71 GiB
Duration : 1h 28mn
Overall bit rate : 2 746 Kbps
Encoded date : UTC 2011-08-29 12:33:24
Writing application : mkvmerge v4.8.0 ('I Got The...') сборка от May 24 2011 03:12:58
Writing library : libebml v1.2.0 + libmatroska v1.1.0

Video
ID : 1
Format : AVC
Format/Info : Advanced Video Codec
Format profile : High@L4.1
Format settings, CABAC : Yes
Format settings, ReFrames : 9 frames
Muxing mode : Header stripping
Codec ID : V_MPEG4/ISO/AVC
Duration : 1h 28mn
Bit rate : 2 361 Kbps
Width : 1 000 pixels
Height : 432 pixels
Display aspect ratio : 2.35:1
Frame rate : 23.976 fps
Color space : YUV
Chroma subsampling : 4:2:0
Bit depth : 8 bits
Scan type : Progressive
Bits/(Pixel*Frame) : 0.228
Stream size : 1.43 GiB (84%)
Title : for freeisland
Writing library : x264 core 115 r1995 c1e60b9
Encoding settings : cabac=1 / ref=9 / deblock=1:-1:-1 / analyse=0x3:0x133 / me=hex / subme=8 / psy=1 / psy_rd=1.00:0.15 / mixed_ref=1 / me_range=16 / chroma_me=1 / trellis=1 / 8x8dct=1 / cqm=0 / deadzone=21,11 / fast_pskip=1 / chroma_qp_offset=-3 / threads=6 / sliced_threads=0 / nr=0 / decimate=1 / interlaced=0 / bluray_compat=0 / constrained_intra=0 / bframes=9 / b_pyramid=2 / b_adapt=2 / b_bias=0 / direct=3 / weightb=1 / open_gop=0 / weightp=2 / keyint=250 / keyint_min=23 / scenecut=40 / intra_refresh=0 / rc_lookahead=50 / rc=2pass / mbtree=1 / bitrate=2361 / ratetol=1.0 / qcomp=0.60 / qpmin=0 / qpmax=69 / qpstep=4 / cplxblur=20.0 / qblur=0.5 / vbv_maxrate=50000 / vbv_bufsize=50000 / nal_hrd=none / ip_ratio=1.40 / aq=1:1.00
Language : Russian

Audio
ID : 2
Format : AC-3
Format/Info : Audio Coding 3
Mode extension : CM (complete main)
Muxing mode : Header stripping
Codec ID : A_AC3
Duration : 1h 28mn
Bit rate mode : Constant
Bit rate : 384 Kbps
Channel(s) : 6 channels
Channel positions : Front: L C R, Side: L R, LFE
Sampling rate : 48.0 KHz
Bit depth : 16 bits
Compression mode : Lossy
Stream size : 244 MiB (14%)
Title : 48.0 KHz, AC-3, 6 channels, 384 Kbps
Language : Russian


pb.wtf



Скачать Ёлки через торрент http://s008.radikal.ru/i303/1108/a8/143b1dd543bf.png Скачать фильм Ёлки через торрент бесплантно в хорошем качестве Описание:События самой новогодней комедии ЁЛКИ происходят в 11 городах: Калининграде, Казани, Перми, Уфе, Бавлах, Екатеринбурге, ... 10 10 1
Info! Золотая раздача, скачанное не засчитывается.
Торрент: Зарегистрирован [2011-08-30 16:52] · скачан: 483 раз
Статус: √ проверено
Размер: 1.71 GB
Как cкачать? Как скачать Ёлки через торрент | UTorrent

% Раздел Тема Автор DL S | L
BBC [ 1.37 GB ] BBC: Прогулки с монстрами. Жизнь до динозавров / BBC: Walking With Monsters: Life Before Dinosaurs [2005 документальный DVDRip] 220v0lt Скачать
2 | 0
Наши сериалы [ 44.32 GB ] Маргоша 3 / Серии 1-90 из 90 [2010 драмеди IPTVRip] shk0der Скачать
1 | 0
Наши фильмы, до 2010 [ 1.37 GB ] Экватор [2007 DVDRip лицензия] Mafiozi Скачать
1 | 0
Детские обучающие игры [ 903 MB ] Маша и Медведь. Догонялки [лицензияТолько русскийВанЭсс] Anonymous Скачать
3 | 0
Другие симуляторы [ 1.36 GB ] Антология Русской Рыбалки 2004-2010 [лицензияRUinstallsoft.ru] IceDevil71 Скачать
1 | 0
Детские обучающие игры [ 506 MB ] Маша и Медведь. Догонялки [RePck Только русский] от Chestr21 Anonymous Скачать
1 | 0

28-11-2019 20:33  

Отключить всю рекламу на сайте

12-12-2011 07:42 Ёлки Скачать торрент  

Кино СУПЕР!) спасибо авторуpb.wtf



    Дорогой пользователь! Огромная просьба, поблагодарите релизера, оцените раздачу и оставьте свои комментарий, если Вы скачали Ёлки через торрент бесплатно! Внесите свою лепту в развитие PiratBit!
    Комментировать посты могут только пользователи прошедшие не сложную регистрацию
    Показать сообщения:    

    Ёлки через торрент
    Скачать бесплатно Ёлки
    Ёлки скачать торрент
    Ёлки смотреть онлайн
    Cкачать фильм Ёлки бесплатно
    Ёлки скачать торрент в хорошем качестве
    Ёлки смотреть онлайн бесплатно в хорошем качестве


    Вы не можете начинать темы
    Вы не можете отвечать на сообщения
    Вы не можете редактировать свои сообщения
    Вы не можете удалять свои сообщения
    Вы не можете голосовать в опросах
    Вы не можете прикреплять файлы к сообщениям
    Вы можете скачивать файлы