1 сезон

1 сезон

iTunes

1

КиноПоиск HD

Кинопоиск HD

iTunes

13

1 сезон

RePack

30

Новинка

ВАЖНО

ИГРА 18+

pack

RePack

MK11
pack

Легкие деньги

RePack

jed

RePack

fifa19

RePack

RDR2

RePack

NEED FOR SPEED™ PAYBACK

4 сезон

9 сезон

Бесстыжие 9 сезон

Все сериалы

все сериалы на PB.wtf

RePack

FAR CRY 5
  
Magnet ссылка

Перл Харбор / Pearl Harbor (Майкл Бэй) [2001 г., боевик, драма, мелодрама, военный, BDRip-AVC] pb.wtf

Перл Харбор через торрент pb.wtf

Размер: 4.03 GB | Добавлен: 9 лет 7 мес. назад | Торрент скачан:209 раз
Скачать  

30-08-2011 17:12 Перл Харбор Скачать торрент  

Перл Харбор / Pearl Harbor
«December 7, 1941 The day America stood still!»

Год выпуска: 2001
Страна: США
Жанр: Боевик, драма, мелодрама, военный
Продолжительность: 03:03:05
Режиссер: Майкл Бэй
Продюссер: Майкл Бэй, Джерри Брукхаймер, Кенни Бейтс
Сценарий: Рэндалл Уоллес

Бюджет: $140 000 000

В ролях: Бен Аффлек, Джош Хартнетт, Кейт Бекинсейл, Кьюба Гудинг мл., Алек Болдуин, Дженнифер Гарнер, Уильям Фихтнер, Джон Войт, Том Сайзмор, Уильям Ли Скотт, Джэми Кинг, Дэн Эйкройд, Грег Зола, Юэн Бремнер, Сара Рю

Описание: 1941 год, США. Вся Европа под властью нацистов, немецкие танки подходят к Москве. Отделенная двумя океанами от бушующего пламени Второй Мировой, Америка продолжает жить нормальной жизнью - снимается кино, люди ходят в рестораны, на танцы, влюбляются, женятся... Но уже отдан приказ Императора Японии, и сотни самолетов на бреющем полете приближаются к Перл Харбору, главной базе военно-морского флота США...

Перевод:
Полный дублированный
Субтитры:
Русские
Английские

Формат: MKV
Качество: BDRip-AVC
Видео: H.264@L4.1, 1000x400 pix (2,35:1), 2380 Kbps, 23.976 fps
Аудио:
48.0 KHz, AC3, 6 channels, 384 Kbps [Дублированный]
48.0 KHz, AC3, 6 channels, 384 Kbps [Оригинал]

Релиз от:
General
Unique ID : 249117717149829224954470978272134347149 (0xBB6A53BDB7EFA03989DD130B7B26B98D)
Complete name : J:BDRip-AVCPearl Harbor (2001).mkv
Format : Matroska
Format version : Version 2
File size : 4.03 GiB
Duration : 3h 3mn
Overall bit rate : 3 148 Kbps
Encoded date : UTC 2011-08-25 08:21:12
Writing application : mkvmerge v4.8.0 ('I Got The...') сборка от May 24 2011 03:12:58
Writing library : libebml v1.2.0 + libmatroska v1.1.0

Video
ID : 1
Format : AVC
Format/Info : Advanced Video Codec
Format profile : High@L4.1
Format settings, CABAC : Yes
Format settings, ReFrames : 12 frames
Muxing mode : Header stripping
Codec ID : V_MPEG4/ISO/AVC
Duration : 3h 3mn
Bit rate : 2 380 Kbps
Width : 1 000 pixels
Height : 400 pixels
Display aspect ratio : 2.500
Frame rate : 23.976 fps
Color space : YUV
Chroma subsampling : 4:2:0
Bit depth : 8 bits
Scan type : Progressive
Bits/(Pixel*Frame) : 0.248
Stream size : 2.96 GiB (74%)
Title : for freeisland
Writing library : x264 core 115 r1995 c1e60b9
Encoding settings : cabac=1 / ref=12 / deblock=1:-1:-1 / analyse=0x3:0x133 / me=hex / subme=8 / psy=1 / psy_rd=1.00:0.15 / mixed_ref=1 / me_range=16 / chroma_me=1 / trellis=1 / 8x8dct=1 / cqm=0 / deadzone=21,11 / fast_pskip=1 / chroma_qp_offset=-3 / threads=6 / sliced_threads=0 / nr=0 / decimate=1 / interlaced=0 / bluray_compat=0 / constrained_intra=0 / bframes=13 / b_pyramid=2 / b_adapt=2 / b_bias=0 / direct=3 / weightb=1 / open_gop=0 / weightp=2 / keyint=250 / keyint_min=23 / scenecut=40 / intra_refresh=0 / rc_lookahead=50 / rc=2pass / mbtree=1 / bitrate=2380 / ratetol=1.0 / qcomp=0.60 / qpmin=0 / qpmax=69 / qpstep=4 / cplxblur=20.0 / qblur=0.5 / vbv_maxrate=50000 / vbv_bufsize=50000 / nal_hrd=none / ip_ratio=1.40 / aq=1:1.00
Language : English

Audio #1
ID : 2
Format : AC-3
Format/Info : Audio Coding 3
Mode extension : CM (complete main)
Muxing mode : Header stripping
Codec ID : A_AC3
Duration : 3h 3mn
Bit rate mode : Constant
Bit rate : 384 Kbps
Channel(s) : 6 channels
Channel positions : Front: L C R, Side: L R, LFE
Sampling rate : 48.0 KHz
Bit depth : 16 bits
Compression mode : Lossy
Stream size : 503 MiB (12%)
Title : 48.0 KHz, AC3, 6 channels, 384 Kbps [Дублированный]
Language : Russian

Audio #2
ID : 3
Format : AC-3
Format/Info : Audio Coding 3
Mode extension : CM (complete main)
Muxing mode : Header stripping
Codec ID : A_AC3
Duration : 3h 3mn
Bit rate mode : Constant
Bit rate : 384 Kbps
Channel(s) : 6 channels
Channel positions : Front: L C R, Side: L R, LFE
Sampling rate : 48.0 KHz
Bit depth : 16 bits
Compression mode : Lossy
Stream size : 503 MiB (12%)
Title : 48.0 KHz, AC3, 6 channels, 384 Kbps
Language : English

Text #1
ID : 4
Format : UTF-8
Codec ID : S_TEXT/UTF8
Codec ID/Info : UTF-8 Plain Text
Language : Russian

Text #2
ID : 5
Format : UTF-8
Codec ID : S_TEXT/UTF8
Codec ID/Info : UTF-8 Plain Text
Language : English


pb.wtf



Скачать Перл Харбор через торрент http://s59.radikal.ru/i164/1108/26/18d519e77505.png Скачать фильм Перл Харбор через торрент бесплантно в хорошем качестве Описание: 1941 год, США. Вся Европа под властью нацистов, немецкие танки подходят к Москве. Отделенная двумя океанами от бушующего пламени ... 10 10 7
Info! Золотая раздача, скачанное не засчитывается.
Торрент: Зарегистрирован [2011-08-30 17:12] · скачан: 209 раз
Статус: √ проверено
Размер: 4.03 GB
Как cкачать? Как скачать Перл Харбор через торрент | UTorrent

% Раздел Тема Автор DL S | L
Фильмы [HD 720p, 1080p] (Хороший звук DUB, MVO) [ 5.1 GB ] Перл Харбор / Pearl Harbor [2001 военный BDRip 1080p-HEVC 10bit ] ADVOKAT69 Скачать
1 | 0
Фильмы (Blu-ray, BD-Remux, HDDVD) [ 42.65 GB ] Перл-Харбор / Pearl Harbor [2001 BDRemux 1080p] DUB + 2xMVO + 2xAVO sheker187 Скачать
1 | 0
Фильмы [HD 720p, 1080p] (Хороший звук DUB, MVO) [ 8.82 GB ] Перл Харбор / Pearl Harbor [2001 военный история BDRip 1080p HEVC ()] Мичман37 Скачать
1 | 0
Фильмы 2001-2005 [ 2.21 GB ] Перл Харбор / Pearl Harbor [2001 военный BDRip 1080p] Andruuha Скачать
1 | 0
Фильмы (BDRip, HDrip-AVC) (48-60 fps) [ 3.95 GB ] Перл-Харбор / Pearl Harbor [2001 BDRip-AVC 60fps Experimental Dub] от R.G. HD-Films Tiberiumsun69 Скачать
21 | 0
Фильмы [HD 720p, 1080p] (Хороший звук DUB, MVO) [ 12.99 GB ] Перл-Харбор / Pearl Harbor [2001 BDRip 720p от _denis_100 / NNNB] DUB 2xMVO 2xAVO _denis_100 Скачать
1 | 0
National Geographic [ 1.26 GB ] Секунды до катастрофы: Перл-Харбор / Seconds from disaster: Pearl Harbor [2011 Документальный война история исследование HDTVRip 720p ] schultz Скачать
1 | 0

28-11-2019 20:33  

Отключить всю рекламу на сайте

30-08-2011 19:17 Перл Харбор Скачать торрент  

jb_alex Спосибо за Релис!!!Фильм просто СУПЕР!!!!
pb.wtf



    Дорогой пользователь! Огромная просьба, поблагодарите релизера, оцените раздачу и оставьте свои комментарий, если Вы скачали Перл Харбор через торрент бесплатно! Внесите свою лепту в развитие PiratBit!
    Комментировать посты могут только пользователи прошедшие не сложную регистрацию
    Показать сообщения:    

    Перл Харбор через торрент
    Скачать бесплатно Перл Харбор
    Перл Харбор скачать торрент
    Перл Харбор смотреть онлайн
    Cкачать фильм Перл Харбор бесплатно
    Перл Харбор скачать торрент в хорошем качестве
    Перл Харбор смотреть онлайн бесплатно в хорошем качестве


    Вы не можете начинать темы
    Вы не можете отвечать на сообщения
    Вы не можете редактировать свои сообщения
    Вы не можете удалять свои сообщения
    Вы не можете голосовать в опросах
    Вы не можете прикреплять файлы к сообщениям
    Вы можете скачивать файлы