1 сезон

1 сезон

iTunes

1

КиноПоиск HD

Кинопоиск HD

iTunes

13

1 сезон

RePack

30

Новинка

ВАЖНО

ИГРА 18+

pack

RePack

MK11
pack

Легкие деньги

RePack

jed

RePack

fifa19

RePack

RDR2

RePack

NEED FOR SPEED™ PAYBACK

4 сезон

9 сезон

Бесстыжие 9 сезон

Все сериалы

все сериалы на PB.wtf

RePack

FAR CRY 5
  
Magnet ссылка

Останься / Stay (Марк Форстер / Marc Forster) [2005 г., триллер, драма, BDRip] DVO (НТВ+) pb.wtf

Останься через торрент pb.wtf

Размер: 1.46 GB | Добавлен: 9 лет 7 мес. назад | Торрент скачан:278 раз
Скачать  

30-08-2011 20:40 Останься Скачать торрент  

Останься / Stay

Год выпуска: 2005
Страна: США
Жанр: триллер, драма
Продолжительность: 01:38:55
Перевод: Профессиональный (двухголосый закадровый) - НТВ+

Режиссер: Марк Форстер / Marc Forster

В ролях: Юэн МакГрегор /Ewan McGregor/, Райан Гослинг /Ryan Gosling/, Кейт Бёртон /Kate Burton/, Наоми Уоттс /Naomi Watts/, Элизабет Ризер /Elizabeth Reaser/, Боб Хоскинс /Bob Hoskins/, Джанин Гарофало /Janeane Garofalo/..

Описание: Находящийся на грани помешательства студент Генри Лезем рассказывает психиатру Сэму Фостеру о том, что покончит с собой в субботу в полночь. Не желая допустить гибели Генри, Сэм решает сделать все от него зависящее, чтобы избавить парня от навязчивой идеи.

Он отправляется вместе с ним в путешествие по городу, в ходе которого и сам постепенно начинает погружаться в кошмарные иллюзии пациента, вместе с ним балансируя на тонкой грани между жизнью и смертью…





[ [/url]

Качество: BDRip
Формат: AVI
Видео кодек: XVID
Аудио кодек: AC3
Видео: XVID, 1 651 Kbps, 720 x 304 pixels, 23.976 fps, Bits/(Pixel*Frame) : 0.315
Аудио: AC-3, 448 Kbps, 6 channels, 48.0 KHz
Complete name Ostansya.2005.RUS.BDRip.XviD.AC3.-HQ-ViDEO.avi
Format : AVI
Format/Info : Audio Video Interleave
File size : 1.46 GiB
Duration : 1h 38mn
Overall bit rate : 2 108 Kbps
Movie name : Останься / Stay (2005)
Director : Shevon (BDRemux)
Writing application : VirtualDubMod 1.5.10.2 (build 2540/release)
Copyright : HQ-ViDEO
Comment : 29.08.2011

Video
ID : 0
Format : MPEG-4 Visual
Format profile : Advanced Simple@L5
Format settings, BVOP : 1
Format settings, QPel : No
Format settings, GMC : No warppoints
Format settings, Matrix : Custom
Codec ID : XVID
Codec ID/Hint : XviD
Duration : 1h 38mn
Bit rate : 1 651 Kbps
Width : 720 pixels
Height : 304 pixels
Display aspect ratio : 2.35:1
Frame rate : 23.976 fps
Color space : YUV
Chroma subsampling : 4:2:0
Bit depth : 8 bits
Scan type : Progressive
Compression mode : Lossy
Bits/(Pixel*Frame) : 0.315
Stream size : 1.14 GiB (78%)
Writing library : XviD 64

Audio
ID : 1
Format : AC-3
Format/Info : Audio Coding 3
Mode extension : CM (complete main)
Codec ID : 2000
Duration : 1h 38mn
Bit rate mode : Constant
Bit rate : 448 Kbps
Channel(s) : 6 channels
Channel positions : Front: L C R, Side: L R, LFE
Sampling rate : 48.0 KHz
Bit depth : 16 bits
Compression mode : Lossy
Stream size : 317 MiB (21%)
Alignment : Split accross interleaves
Interleave, duration : 42 ms (1.00 video frame)
Interleave, preload duration : 500 ms





pb.wtf



Скачать Останься через торрент http://i4.imageban.ru/out/2011/08/30/ab7166adcdca53d08b63ac09cad9580c.jpg Скачать фильм Останься через торрент бесплантно в хорошем качестве Описание: Находящийся на грани помешательства студент Генри Лезем рассказывает психиатру Сэму Фостеру о том, что покончит с собой в субботу ... 10 10 5
Info! Золотая раздача, скачанное не засчитывается.
Торрент: Зарегистрирован [2011-08-30 20:40] · скачан: 278 раз
Статус: √ проверено
Размер: 1.46 GB
Как cкачать? Как скачать Останься через торрент | UTorrent

% Раздел Тема Автор DL S | L
Фильмы [HD 720p, 1080p] (Хороший звук DUB, MVO) [ 5.53 GB ] День когда Земля остановилась / The Day the Earth Stood Still [2008 BDRip 1080p HEVC ()] Мичман37 Скачать
1 | 0
Фильмы [HD 720p, 1080p] (Хороший звук DUB, MVO) [ 13.45 GB ] Останься / Stay [2005 BDRip 1080p многоголосый] |MVO AVO| кэп Скачать
1 | 0
Фильмы (WEB-DL 720p, 1080p) [ 8.61 GB ] День когда Земля остановилась / The Day the Earth Stood Still [Open Matte] [2008 HDTVRip 1080p] DUB+AVO+OriginalSubs Assasinca Скачать
1 | 1
Фильмы [HD 720p, 1080p] (Хороший звук DUB, MVO) [ 7.75 GB ] Если я останусь / If I Stay [2014 BDRip 1080p] DUB еnvy Скачать
1 | 0
Фильмы [HD 720p, 1080p] (Хороший звук DUB, MVO) [ 10.57 GB ] Если я останусь / If I Stay [2014 BDRip 1080p Dub ] Seedtank Скачать
1 | 0
Фильмы (DVD фильмы) [ 7.14 GB ] Если я останусь / If I Stay [2014 DVD9] R5 voovaz Скачать
1 | 0
Фильмы 2014 [DVDrip, WEB-DLRip, HDrip] [ 1.37 GB ] Если я останусь / If I Stay [2014 BDRip ] Seedtank Скачать
1 | 0

28-11-2019 20:33  

Отключить всю рекламу на сайте

    Дорогой пользователь! Огромная просьба, поблагодарите релизера, оцените раздачу и оставьте свои комментарий, если Вы скачали Останься через торрент бесплатно! Внесите свою лепту в развитие PiratBit!
    Комментировать посты могут только пользователи прошедшие не сложную регистрацию
    Показать сообщения:    

    Останься через торрент
    Скачать бесплатно Останься
    Останься скачать торрент
    Останься смотреть онлайн
    Cкачать фильм Останься бесплатно
    Останься скачать торрент в хорошем качестве
    Останься смотреть онлайн бесплатно в хорошем качестве


    Вы не можете начинать темы
    Вы не можете отвечать на сообщения
    Вы не можете редактировать свои сообщения
    Вы не можете удалять свои сообщения
    Вы не можете голосовать в опросах
    Вы не можете прикреплять файлы к сообщениям
    Вы можете скачивать файлы