1 сезон

1 сезон

iTunes

1

КиноПоиск HD

Кинопоиск HD

iTunes

13

1 сезон

RePack

30

Новинка

ВАЖНО

ИГРА 18+

pack

RePack

MK11
pack

Легкие деньги

RePack

jed

RePack

fifa19

RePack

RDR2

RePack

NEED FOR SPEED™ PAYBACK

4 сезон

9 сезон

Бесстыжие 9 сезон

Все сериалы

все сериалы на PB.wtf

RePack

FAR CRY 5
  
Magnet ссылка

Маньчжурский кандидат / The Manchurian Candidate (Джонатан Демме / Jonathan Demme) [2004 г., Триллер, Детектив, Драма, HDRip] DVO pb.wtf

Маньчжурский кандидат через торрент pb.wtf

Размер: 1.45 GB | Добавлен: 9 лет 7 мес. назад | Торрент скачан:96 раз
Скачать  

30-08-2011 22:12 Маньчжурский кандидат Скачать торрент  

Маньчжурский кандидат / The Manchurian Candidate

Год выпуска: 2004
Страна: США
Жанр: Триллер, Детектив, Драма
Продолжительность: 2:09:52
Перевод: Профессиональный (двухголосый, закадровый)

Режиссер: Джонатан Демме / Jonathan Demme

В ролях: Дензел Вашингтон /Denzel Washington/, Мэрил Стрип /Meryl Streep/, Джеффри Райт /Jeffrey Wright/, Пабло Шрайбер /Pablo Schreiber/, Энтони Маки /Anthony Mackie/, Дориан Миссик /Dorian Missick/, Хосе Пабло Кантилльо /Jose Pablo Cantillo/, Тедди Данн /Teddy Dunn/, Хоакин Перез-Кэмпбелл /Joaquin Perez-Campbell/, Тим Арц /Tim Artz/, Робин Хичкок /Robyn Hitchcock/, Лив Шрайбер /Liev Schreiber/, Антуан Тейлор /Antoine Taylor/, Джозеф Алесси /Joseph Alessi/, Рэймонд Энтони Томас /Raymond Anthony Thomas/, Билл Ирвин /Bill Irwin/, Кимберли Элиз /Kimberly Elise/, Эл Фрэнкен /Al Franken/, Джон Войт /Jon Voight/, Пол Лэзар /Paul Lazar/

Описание: Во время операции "Буря в пустыне" сержант Рэймонд Шоу совершил подвиг, спас своих братьев по оружию, попавших в засаду, пока командир отряда Бен Марко был без сознания. Прошло несколько лет. Шоу, подбадриваемый матерью-сенатором, рвется в вице-президенты, а у Бена начинаются странные видения. Он уже не уверен, что тогда в Кувейте все было именно так, как он помнит. Поиски правды могут стоить Марко жизни.





Качество: HDRip
Формат: AVI
Видео кодек: XviD
Аудио кодек: AC3
Видео: 688x384 (1.79:1), 23.976 fps, XviD build 50 ~1400 kbps avg, 0.22 bit/pixel
Аудио: 48 kHz, AC3 Dolby Digital, 2/0 (L,R) ch, ~192 kbps
Complete name Manchjurskiy_kandidat_HDRip_[rutracker.org]_by_Scarabey.avi
Format : AVI
Format/Info : Audio Video Interleave
File size : 1.45 GiB
Duration : 2h 9mn
Overall bit rate : 1 602 Kbps
Writing application : VirtualDubMod 1.5.10.2 (build 2540/release)
Writing library : VirtualDubMod build 2540/release

Video
ID : 0
Format : MPEG-4 Visual
Format profile : Advanced Simple@L5
Format settings, BVOP : 1
Format settings, QPel : No
Format settings, GMC : No warppoints
Format settings, Matrix : Custom
Codec ID : XVID
Codec ID/Hint : XviD
Duration : 2h 9mn
Bit rate : 1 401 Kbps
Width : 688 pixels
Height : 384 pixels
Display aspect ratio : 16:9
Frame rate : 23.976 fps
Color space : YUV
Chroma subsampling : 4:2:0
Bit depth : 8 bits
Scan type : Progressive
Compression mode : Lossy
Bits/(Pixel*Frame) : 0.221
Stream size : 1.27 GiB (87%)
Writing library : XviD 1.2.1 (UTC 2008-12-04)

Audio
ID : 1
Format : AC-3
Format/Info : Audio Coding 3
Mode extension : CM (complete main)
Codec ID : 2000
Duration : 2h 9mn
Bit rate mode : Constant
Bit rate : 192 Kbps
Channel(s) : 2 channels
Channel positions : Front: L R
Sampling rate : 48.0 KHz
Bit depth : 16 bits
Compression mode : Lossy
Stream size : 178 MiB (12%)
Alignment : Split accross interleaves
Interleave, duration : 42 ms (1.00 video frame)
Interleave, preload duration : 500 ms





pb.wtf



Скачать Маньчжурский кандидат через торрент http://i1.imageban.ru/out/2011/08/31/44f75b7ff322164369b66df08863e1ff.jpg Скачать фильм Маньчжурский кандидат через торрент бесплантно в хорошем качестве Описание: Во время операции "Буря в пустыне" сержант Рэймонд Шоу совершил подвиг, спас своих братьев по оружию, попавших в засаду, пока ... 5 10 4
Info! Золотая раздача, скачанное не засчитывается.
Торрент: Зарегистрирован [2011-08-30 22:12] · скачан: 96 раз
Статус: √ проверено
Размер: 1.45 GB
Как cкачать? Как скачать Маньчжурский кандидат через торрент | UTorrent

% Раздел Тема Автор DL S | L
Фильмы [HD 720p, 1080p] (Хороший звук DUB, MVO) [ 19.09 GB ] Маньчжурский кандидат / The Manchurian Candidate [2004 BDRip 1080p by msltel] MVO 3 x DVO AVO VO msltel Скачать
1 | 0
Фильмы [HD 720p, 1080p] (Хороший звук DUB, MVO) [ 8 GB ] Маньчжурский кандидат / The Manchurian Candidate [2004 BDRip 720p by msltel] MVO 3 x DVO AVO VO msltel Скачать
1 | 0

28-11-2019 20:33  

Отключить всю рекламу на сайте

31-08-2011 05:20 Маньчжурский кандидат Скачать торрент  

Отличное кино, хорошая раздача, спасибо ёпта)pb.wtf



31-08-2011 07:21 Маньчжурский кандидат Скачать торрент  

Грамотная картина,рекомендуюpb.wtf



    Дорогой пользователь! Огромная просьба, поблагодарите релизера, оцените раздачу и оставьте свои комментарий, если Вы скачали Маньчжурский кандидат через торрент бесплатно! Внесите свою лепту в развитие PiratBit!
    Комментировать посты могут только пользователи прошедшие не сложную регистрацию
    Показать сообщения:    

    Маньчжурский кандидат через торрент
    Скачать бесплатно Маньчжурский кандидат
    Маньчжурский кандидат скачать торрент
    Маньчжурский кандидат смотреть онлайн
    Cкачать фильм Маньчжурский кандидат бесплатно
    Маньчжурский кандидат скачать торрент в хорошем качестве
    Маньчжурский кандидат смотреть онлайн бесплатно в хорошем качестве


    Вы не можете начинать темы
    Вы не можете отвечать на сообщения
    Вы не можете редактировать свои сообщения
    Вы не можете удалять свои сообщения
    Вы не можете голосовать в опросах
    Вы не можете прикреплять файлы к сообщениям
    Вы можете скачивать файлы