Ссылка на приватное зеркало нашего сайта всего за 1$. Внимание количество ограничено!!!

2 сезон

iTunes

1 сезон

1

iTunes

iTunes

iTunes

1 сезон

RePack

30

ИГРА 18+

pack

ВАЖНО

!!Акция!!

Alien_RageХит недели

RePack

MK11
pack

Забери бонус

RePack

jed

!!Акция!!

Alien_Rage

RePack

fifa19

RePack

Assassins Creed: Odyssey

RePack

NEED FOR SPEED™ PAYBACK

4 сезон

9 сезон

Бесстыжие 9 сезон

Все сериалы

все сериалы на PB.wtf

RePack

FAR CRY 5
  

Талантливый мистер Рипли / The Talented mr. Ripley (Энтони Мингелла / Anthony Minghella) [1999 г., триллер, драма, криминал, BDRip 720p] pb.wtf

Талантливый мистер Рипли через торрент pb.wtf

Размер: 11.21 GB | Добавлен: 9 лет 1 мес. назад | Торрент скачан:6 раз
Скачать  

01-09-2011 02:44 Талантливый мистер Рипли Скачать торрент  

Талантливый мистер Рипли / The Talented mr. Ripley«It's better to be a fake somebody than a real nobody.»
Год выпуска: 1999
Страна: США
Жанр: триллер, драма, криминал
Продолжительность: 02:19:06

  • Перевод: Профессиональный (Дубляж);
  • Русские субтитры: есть
  • Формат субтитров: srt
  • Оригинальная аудиодорожка: Английская

Режиссер: Энтони Мингелла / Anthony Minghella
В ролях: Мэтт Дэймон, Гвинет Пэлтроу, Джуд Лоу, Кейт Бланшетт, Филип Сеймур Хоффман, Джек Девенпорт, Джеймс Ребхорн, Серджо Рубини, Филип Бейкер Холл, Селия Уэстон
Описание: Том Рипли знал, что рано или поздно он пробьется наверх. Однажды, после случайного знакомства, один из богатейших людей Америки дает Тому поручение съездить в Италию и убедить его сына, транжирящего деньги в Европе, вернуться в Штаты...

Вскоре Том уже знакомится с Дики Гринлифом и Мардж. Их роскошная жизнь очаровывает Тома. А позже обстоятельства складываются так, что он решает занять место Дики.


  • Тип релиза: BDRip (EbP)
  • Контейнер: mkv
  • Видео кодек: h.264 | Аудио кодек: DTS, АС-3
  • Видео: H264 / 9648 kbps / 1280x720 / 23.976 fps / High Profile 4.1
  • Аудио 1: Russian 48 kHz, AC3, 3/2 (L,C,R,l,r) + LFE ch, ~384.00 kbps avg |Дубляж, R5|
  • Аудио 2: English 48 kHz/16-bit, DTS, 3/2 (L,C,R,l,r) + LFE ch, ~1536.00 kbps avg
  • Субтитры: Russian (DK), Russian, English
  • Чаптеры: 25 шт.


Полное имя : The.Talented.Mr.Ripley.1999.Blu-ray.720p.x264-EbP.Rus.Eng.mkv
Формат : Matroska
Размер файла : 11,2 Гбайт
Продолжительность : 2 ч. 19 м.
Общий поток : 11,5 Мбит/сек
Название фильма : The.Talented.Mr.Ripley.1999.Blu-ray.720p.x264-EbP
Дата кодирования : UTC 2011-02-20 19:10:10
Программа кодирования : mkvmerge v4.5.0 ('Speed of Light') сборка от Feb 1 2011 02:10:32
Библиотека кодирования : libebml v1.2.0 + libmatroska v1.1.0

Видео
Идентификатор : 1
Формат : AVC
Формат/Информация : Advanced Video Codec
Профиль формата : High@L4.1
Параметр CABAC формата : Да
Параметр ReFrames формата : 9 кадры
Идентификатор кодека : V_MPEG4/ISO/AVC
Продолжительность : 2 ч. 19 м.
Битрейт : 9648 Кбит/сек
Ширина : 1280 пикс.
Высота : 720 пикс.
Соотношение сторон : 16:9
Частота кадров : 23,976 кадр/сек
Цветовое пространство : YUV
Подвыборка цветности : 4:2:0
Битовая глубина : 8 бит
Тип развёртки : Прогрессивная
Бит/(Пиксели*Кадры) : 0.437
Размер потока : 9,15 Гбайт (82%)
Библиотека кодирования : x264 core 114 r1900 60ef1f8
Настройки программы : cabac=1 / ref=9 / deblock=1:-3:-3 / analyse=0x3:0x133 / me=umh / subme=10 / psy=1 / psy_rd=1.20:0.00 / mixed_ref=1 / me_range=64 / chroma_me=1 / trellis=2 / 8x8dct=1 / cqm=0 / deadzone=21,11 / fast_pskip=0 / chroma_qp_offset=-2 / threads=12 / sliced_threads=0 / nr=0 / decimate=0 / interlaced=0 / constrained_intra=0 / bframes=9 / b_pyramid=2 / b_adapt=2 / b_bias=0 / direct=3 / weightb=1 / open_gop=0 / weightp=2 / keyint=250 / keyint_min=23 / scenecut=40 / intra_refresh=0 / rc=2pass / mbtree=0 / bitrate=9648 / ratetol=1.0 / qcomp=0.60 / qpmin=0 / qpmax=51 / qpstep=4 / cplxblur=20.0 / qblur=0.5 / ip_ratio=1.40 / pb_ratio=1.30 / aq=2:0.60
Язык : English

Аудио #1
Идентификатор : 2
Формат : AC-3
Формат/Информация : Audio Coding 3
Расширение режима : CM (complete main)
Идентификатор кодека : A_AC3
Продолжительность : 2 ч. 19 м.
Вид битрейта : Постоянный
Битрейт : 384 Кбит/сек
Канал(ы) : 6 канала(ов)
Расположение каналов : Front: L C R, Side: L R, LFE
Частота : 48,0 КГц
Битовая глубина : 16 бит
Метод сжатия : С потерями
Размер потока : 382 Мбайт (3%)
Заголовок : Dub
Язык : Russian

Аудио #2
Идентификатор : 3
Формат : DTS
Формат/Информация : Digital Theater Systems
Идентификатор кодека : A_DTS
Продолжительность : 2 ч. 19 м.
Вид битрейта : Постоянный
Битрейт : 1510 Кбит/сек
Канал(ы) : 6 канала(ов)
Расположение каналов : Front: L C R, Side: L R, LFE
Частота : 48,0 КГц
Битовая глубина : 24 бит
Метод сжатия : С потерями
Размер потока : 1,47 Гбайт (13%)
Язык : English

Текст #1
Идентификатор : 4
Формат : UTF-8
Идентификатор кодека : S_TEXT/UTF8
Идентификатор кодека/Информация : UTF-8 Plain Text
Заголовок : DK
Язык : Russian

Текст #2
Идентификатор : 5
Формат : UTF-8
Идентификатор кодека : S_TEXT/UTF8
Идентификатор кодека/Информация : UTF-8 Plain Text
Язык : Russian

Текст #3
Идентификатор : 6
Формат : UTF-8
Идентификатор кодека : S_TEXT/UTF8
Идентификатор кодека/Информация : UTF-8 Plain Text
Язык : English

Меню
00:00:00.000 : en:Borrowed Jacket
00:07:59.612 : en:Partners in Disguise
00:10:09.242 : en:Coincidence
00:14:21.160 : en:Three Talents of Tom Ripley
00:18:20.399 : en:"Bird"
00:22:19.972 : en:Double Agent
00:29:11.249 : en:Mysterious Mr. Ripley
00:32:46.097 : en:Sightseeing
00:37:39.390 : en:A Corduroy Jacket in Italy
00:43:09.387 : en:Festival of Madonna
00:47:52.570 : en:Confession
00:52:37.855 : en:San Remo
00:58:50.594 : en:Apology
01:03:44.554 : en:New Beginning
01:09:03.706 : en:Evening at the Opera
01:15:44.907 : en:Chance Meeting
01:19:51.020 : en:So Bourgeois
01:27:45.994 : en:Police Inquiry
01:29:51.653 : en:Tom's Return
01:38:17.759 : en:Dickie's Letter
01:40:28.122 : en:Friendship
01:48:16.290 : en:Suspicion
01:59:28.328 : en:Silent Promise
02:05:09.869 : en:A Fake Somebody, A Real Nobody
02:14:02.034 : en:End Credits

pb.wtf



Скачать Талантливый мистер Рипли через торрент http://lostpic.net/images/8fb86d4c58d22d5f40663cc9aa79a233.jpg Скачать фильм Талантливый мистер Рипли через торрент бесплантно в хорошем качестве Описание: Том Рипли знал, что рано или поздно он пробьется наверх. Однажды, после случайного знакомства, один из богатейших людей Америки ... 10 10 1
Info! Золотая раздача, скачанное не засчитывается.
Торрент: Зарегистрирован [2011-09-01 02:44] · скачан: 6 раз
Статус: √ проверено
Размер: 11.21 GB
Как cкачать? Как скачать Талантливый мистер Рипли через торрент | qTorrent

% Раздел Тема Автор DL S | L
Фильмы (Blu-ray, BD-Remux, HDDVD) [ 37.53 GB ] Талантливый мистер Рипли / The Talented Mr. Ripley [1999 BD Remux 1080p] MVO+2xAVO+2xDUB bober100 Скачать
1 | 0
Фильмы до 2000 г. [ 1.45 GB ] Талантливый мистер Рипли / The Talented Mr. Ripley [1999 HDRip] DUB -=Cherry=- Скачать
1 | 0

28-11-2019 20:33  

Отключить всю рекламу на сайте

    Дорогой пользователь! Огромная просьба, поблагодарите релизера, оцените раздачу и оставьте свои комментарий, если Вы скачали Талантливый мистер Рипли через торрент бесплатно! Внесите свою лепту в развитие PiratBit!
    Комментировать посты могут только пользователи прошедшие не сложную регистрацию
    Показать сообщения:    

    Талантливый мистер Рипли через торрент
    Скачать бесплатно Талантливый мистер Рипли
    Талантливый мистер Рипли скачать торрент
    Талантливый мистер Рипли смотреть онлайн
    Cкачать фильм Талантливый мистер Рипли бесплатно
    Талантливый мистер Рипли скачать торрент в хорошем качестве
    Талантливый мистер Рипли смотреть онлайн бесплатно в хорошем качестве


    Вы не можете начинать темы
    Вы не можете отвечать на сообщения
    Вы не можете редактировать свои сообщения
    Вы не можете удалять свои сообщения
    Вы не можете голосовать в опросах
    Вы не можете прикреплять файлы к сообщениям
    Вы можете скачивать файлы