1 сезон

1 сезон

iTunes

1

КиноПоиск HD

Кинопоиск HD

iTunes

13

1 сезон

RePack

30

Новинка

ВАЖНО

ИГРА 18+

pack

RePack

MK11
pack

Легкие деньги

RePack

jed

RePack

fifa19

RePack

RDR2

RePack

NEED FOR SPEED™ PAYBACK

4 сезон

9 сезон

Бесстыжие 9 сезон

Все сериалы

все сериалы на PB.wtf

RePack

FAR CRY 5
  
Magnet ссылка

Моя большая греческая свадьба / My Big Fat Greek Wedding (Джоэл Звик / Joel Zwick) [2002 г., комедия, мелодрама, BDRip] DUB pb.wtf

Моя большая греческая свадьба через торрент pb.wtf

Размер: 1.46 GB | Добавлен: 9 лет 7 мес. назад | Торрент скачан:220 раз
Скачать  

01-09-2011 07:51 Моя большая греческая свадьба Скачать торрент  

Моя большая греческая свадьба / My Big Fat Greek Wedding

Год выпуска: 2002
Страна: США, Канада
Жанр: комедия, мелодрама
Продолжительность: 01:35:06
Перевод: Профессиональный (полное дублирование)

Режиссер: Джоэл Звик / Joel Zwick

В ролях: Ниа Вардалос, Майкл Константин, Джон Корбетт, Лэйни Кэзан, Бесс Майслер, Андреа Мартин, Луис Мэндилор, Джерри Мендичино, Ставрула Логотеттис

Описание: Афродита, богиня любви и красоты, не благосклонна к Туле Портокалос. Ее регулярный ночной кошмар — уже за 30 и еще не замужем. В толстых очках и c обвисшими прядями , она обслуживает клиентов в семейном ресторане своих многочисленных родственников и спит и видит, куда бы сбежать от всех этих тетушек, дядюшек и бабушек.





Качество: BDRip
Формат: AVI
Видео кодек: XviD
Аудио кодек: AC3
Видео: 720x400 (1.80:1), 23.976 fps, XviD build 50 ~1739 kbps avg, 0.25 bit/pixel
Аудио: 48 kHz, AC3 Dolby Digital, 3/2 (L,C,R,l,r) + LFE ch, ~448 kbps
Complete name Моя большая греческая свадьба.avi
Format : AVI
Format/Info : Audio Video Interleave
File size : 1.46 GiB
Duration : 1h 35mn
Overall bit rate : 2 197 Kbps
Writing application : VirtualDubMod 1.5.10.2 (build 2540/release)
Writing library : VirtualDubMod build 2540/release

Video
ID : 0
Format : MPEG-4 Visual
Format profile : Advanced Simple@L5
Format settings, BVOP : 1
Format settings, QPel : No
Format settings, GMC : No warppoints
Format settings, Matrix : Custom
Codec ID : XVID
Codec ID/Hint : XviD
Duration : 1h 35mn
Bit rate : 1 740 Kbps
Width : 720 pixels
Height : 400 pixels
Display aspect ratio : 16:9
Frame rate : 23.976 fps
Color space : YUV
Chroma subsampling : 4:2:0
Bit depth : 8 bits
Scan type : Progressive
Compression mode : Lossy
Bits/(Pixel*Frame) : 0.252
Stream size : 1.16 GiB (79%)
Writing library : XviD 1.2.1 (UTC 2008-12-04)

Audio
ID : 1
Format : AC-3
Format/Info : Audio Coding 3
Mode extension : CM (complete main)
Codec ID : 2000
Duration : 1h 35mn
Bit rate mode : Constant
Bit rate : 448 Kbps
Channel(s) : 6 channels
Channel positions : Front: L C R, Side: L R, LFE
Sampling rate : 48.0 KHz
Bit depth : 16 bits
Compression mode : Lossy
Stream size : 305 MiB (20%)
Alignment : Split accross interleaves
Interleave, duration : 42 ms (1.00 video frame)
Interleave, preload duration : 500 ms






pb.wtf



Скачать Моя большая греческая свадьба через торрент http://i1.imageban.ru/out/2011/09/01/7ac273f812de240e4f09242bc2bae796.png Скачать фильм Моя большая греческая свадьба через торрент бесплантно в хорошем качестве Описание: Афродита, богиня любви и красоты, не благосклонна к Туле Портокалос. Ее регулярный ночной кошмар — уже за 30 и еще не замужем. В ... 4.7 10 6
Info! Золотая раздача, скачанное не засчитывается.
Торрент: Зарегистрирован [2011-09-01 07:51] · скачан: 220 раз
Статус: √ проверено
Размер: 1.46 GB
Как cкачать? Как скачать Моя большая греческая свадьба через торрент | UTorrent

% Раздел Тема Автор DL S | L
Фильмы 2016 [DVDrip, WEB-DLRip, HDrip] (DUB, MVO) [ 748 MB ] Моя большая греческая свадьба 2 / My Big Fat Greek Wedding 2 [2016 HDRip] DUB bober100 Скачать
1 | 0

28-11-2019 20:33  

Отключить всю рекламу на сайте

    Дорогой пользователь! Огромная просьба, поблагодарите релизера, оцените раздачу и оставьте свои комментарий, если Вы скачали Моя большая греческая свадьба через торрент бесплатно! Внесите свою лепту в развитие PiratBit!
    Комментировать посты могут только пользователи прошедшие не сложную регистрацию
    Показать сообщения:    

    Моя большая греческая свадьба через торрент
    Скачать бесплатно Моя большая греческая свадьба
    Моя большая греческая свадьба скачать торрент
    Моя большая греческая свадьба смотреть онлайн
    Cкачать фильм Моя большая греческая свадьба бесплатно
    Моя большая греческая свадьба скачать торрент в хорошем качестве
    Моя большая греческая свадьба смотреть онлайн бесплатно в хорошем качестве


    Вы не можете начинать темы
    Вы не можете отвечать на сообщения
    Вы не можете редактировать свои сообщения
    Вы не можете удалять свои сообщения
    Вы не можете голосовать в опросах
    Вы не можете прикреплять файлы к сообщениям
    Вы можете скачивать файлы