Ссылка на приватное зеркало нашего сайта всего за 1$. Внимание количество ограничено!!!

2 сезон

iTunes

1 сезон

1

2 сезон

2 сезон

iTunes

1 сезон

RePack

30

Ultimate

ВАЖНО

ИГРА 18+

pack

RePack

MK11
pack

Забери бонус

RePack

jed

!!Акция!!

Alien_Rage

RePack

fifa19

RePack

Assassins Creed: Odyssey

RePack

NEED FOR SPEED™ PAYBACK

4 сезон

9 сезон

Бесстыжие 9 сезон

Все сериалы

все сериалы на PB.wtf

RePack

FAR CRY 5
  

Бунт ушастых / Hop (Тим Хилл / Tim Hill) [2011, мультфильм, фэнтези, комедия, семейный, BDRemux 1080p] pb.wtf

Бунт ушастых через торрент pb.wtf

Размер: 20.05 GB | Добавлен: 9 лет 3 мес. назад | Торрент скачан:49 раз
Скачать  

02-09-2011 18:53 Бунт ушастых Скачать торрент  

Бунт ушастых / Hop«Конфетки, цыпочки и рок-н-ролл»
Год выпуска: 2011
Страна: США
Жанр: мультфильм, фэнтези, комедия, семейный
Продолжительность: 01:35:00
Перевод: Профессиональный (полное дублирование)
Субтитры: английские, русские (надписи)
Режиссер: Тим Хилл
Продюссер: Кристофер Меледандри, Джон Коэн, Венди Джиари
Сценарий: Синко Пол, Кен Даурио, Брайан Линч
Бюджет: $63 000 000
Премьера в мире: 30 марта 2011
Премьера в РФ: 9 июня 2011
В ролях: Джеймс Марсден, Расселл Брэнд, Кейли Куоко, Хэнк Азария, Гэри Коул, Элизабет Перкинс, Хью Лори, Тиффани Эспенсен, Дэвид Хэсселхофф, Челси Хэндлер
Описание: Безработный лоботряс Фред однажды сбивает машиной Пасхального кролика. Пока сказочный грызун поправляет здоровье, герой вынужден занять его место, приступив к раздаче крашеных яиц детишкам по всему миру.
Формат субтитров: prerendered (Blu-ray/PGS/SUP) + softsub (SRT)
PG - Рекомендуется присутствие родителей
5.20 (5 747)

Качество: BDRemux 1080p
Формат: MKV
Видео кодек: WVC1
Аудио кодек: DTS / DTS-HD
Видео: VC-1 Advanced (WVC1), 1920x1080, VBR, 16:9, ~25542 kbps, 23.976 fps, 0.549 bit/pixel
Аудио #1: English, DTS-HD Master Audio, 5.1 ch, 48 kHz, VBR ~3890 kbps, 24 bit (DTS Core: 5.1 ch, 48 kHz, 1509 kbps, 24-bit) [Оригинал]
Аудио #2: Russian, Digital Theater Systems, 5.1 ch, 48 kHz, 755 kbps [Профессиональный (полное дублирование)]
Общее
Уникальный идентификатор : 213752215539506562037461669943524472765 (0xA0CF2DE3E557D6C3A17BB61079F437BD)
Полное имя : D:\торенты\cваты 4\Hop.2011.BDRemux.1080p.mkv
Формат : Matroska
Версия формата : Version 2
Размер файла : 20,1 Гбайт
Продолжительность : 1 ч. 35 м.
Общий поток : 30,2 Мбит/сек
Дата кодирования : UTC 2011-08-17 01:07:39
Программа кодирования : mkvmerge v4.8.0 ('I Got The...') сборка от May 24 2011 03:12:58
Библиотека кодирования : libebml v1.2.0 + libmatroska v1.1.0

Видео
Идентификатор : 1
Формат : VC-1
Профиль формата : AP@L3
Идентификатор кодека : WVC1
Идентификатор кодека/Подсказка : Microsoft
Продолжительность : 1 ч. 35 м.
Битрейт : 27,3 Мбит/сек
Ширина : 1920 пикс.
Высота : 1080 пикс.
Соотношение сторон : 16:9
Частота кадров : 23,976 кадр/сек
Подвыборка цветности : 4:2:0
Битовая глубина : 8 бит
Тип развёртки : Прогрессивная
Метод сжатия : С потерями
Бит/(Пиксели*Кадры) : 0.549
Размер потока : 18,1 Гбайт (90%)
Заголовок : Hop
Язык : English

Аудио #1
Идентификатор : 2
Формат : DTS
Формат/Информация : Digital Theater Systems
Идентификатор кодека : A_DTS
Продолжительность : 1 ч. 35 м.
Вид битрейта : Постоянный
Битрейт : 755 Кбит/сек
Каналы : 6 каналов
Расположение каналов : Front: L C R, Side: L R, LFE
Частота : 48,0 КГц
Битовая глубина : 24 бит
Метод сжатия : С потерями
Размер потока : 513 Мбайт (2%)
Заголовок : Dub
Язык : Russian

Аудио #2
Идентификатор : 3
Формат : DTS
Формат/Информация : Digital Theater Systems
Профиль формата : MA / Core
Идентификатор кодека : A_DTS
Продолжительность : 1 ч. 35 м.
Вид битрейта : Переменный
Битрейт : 1576 Кбит/сек / 1510 Кбит/сек
Каналы : 6 каналов
Расположение каналов : Front: L C R, Side: L R, LFE
Частота : 48,0 КГц
Битовая глубина : 24 бит
Метод сжатия : Без потерь / Lossy
Заголовок : Original
Язык : English

Текст #1
Идентификатор : 4
Формат : UTF-8
Идентификатор кодека : S_TEXT/UTF8
Идентификатор кодека/Информация : UTF-8 Plain Text
Заголовок : Forced
Язык : Russian

Текст #2
Идентификатор : 5
Формат : PGS
Режим смешивания : zlib
Идентификатор кодека : S_HDMV/PGS
Идентификатор кодека/Информация : The same subtitle format used on BDs/HD-DVDs
Заголовок : Full
Язык : English

Меню
00:00:00.000 : en:00:00:00.000
00:05:30.872 : en:00:05:30.872
00:07:43.088 : en:00:07:43.088
00:09:46.753 : en:00:09:46.753
00:15:24.382 : en:00:15:24.382
00:20:11.460 : en:00:20:11.460
00:25:54.094 : en:00:25:54.094
00:28:50.395 : en:00:28:50.395
00:32:12.764 : en:00:32:12.764
00:36:22.013 : en:00:36:22.013
00:43:18.513 : en:00:43:18.513
00:47:45.613 : en:00:47:45.613
00:52:00.909 : en:00:52:00.909
00:58:12.114 : en:00:58:12.114
01:06:03.668 : en:01:06:03.668
01:11:19.442 : en:01:11:19.442
01:17:11.752 : en:01:17:11.752
01:22:47.504 : en:01:22:47.504
01:26:55.544 : en:01:26:55.544
01:29:40.542 : en:01:29:40.542


скриншот  скриншот  скриншот  скриншот  скриншот  скриншот  
pb.wtf



Скачать Бунт ушастых через торрент http://i29.fastpic.ru/big/2011/0902/f8/4f4981382c779bccc36305417e3cb0f8.jpg Скачать фильм Бунт ушастых через торрент бесплантно в хорошем качестве Описание: Безработный лоботряс Фред однажды сбивает машиной Пасхального кролика. Пока сказочный грызун поправляет здоровье, герой вынужден ... 5 10 4
Info! Золотая раздача, скачанное не засчитывается.
Торрент: Зарегистрирован [2011-09-02 18:53] · скачан: 49 раз
Статус: √ проверено
Размер: 20.05 GB
Как cкачать? Как скачать Бунт ушастых через торрент | qTorrent

% Раздел Тема Автор DL S | L
Иностранные мультфильмы [ 1.37 GB ] Бунт ушастых / Hop [2011 анимация HDRip лицензия] SD Скачать
1 | 0
Зарубежные Мультфильмы (DVD) [ 5.77 GB ] Бунт ушастых / Hop / Hop [2011 мультфильм DVD9] R5 «Двадцатый Век Фокс СНГ» voovaz Скачать
1 | 0
Зарубежные Мультфильмы (BDRip 1080p, 720p, Blu-ray, BD-Remux) [ 2.19 GB ] Бунт ушастых / Hop [2011 BDRip лицензия] Anonymous Скачать
1 | 0
Зарубежные Мультфильмы (BDRip 1080p, 720p, Blu-ray, BD-Remux) [ 28.63 GB ] Бунт ушастых / Hop [2011 мультфильм Blu-ray 1080p] [EUR] diletant Скачать
1 | 0
Иностранные мультфильмы [ 1.45 GB ] Бунт ушастых / Hop [2011 анимация BDRip лицензия] Friendly Скачать
1 | 0
Зарубежные Мультфильмы (BDRip 1080p, 720p, Blu-ray, BD-Remux) [ 8.46 GB ] Бунт ушастых / Hop [2011 мультфильм BDRip 1080p] DEVI Скачать
1 | 0
Зарубежные Мультфильмы (BDRip 1080p, 720p, Blu-ray, BD-Remux) [ 5.42 GB ] Бунт ушастых / Hop [2011 мультфильм BDRip 720p] diletant Скачать
1 | 0

28-11-2019 20:33  

Отключить всю рекламу на сайте

    Дорогой пользователь! Огромная просьба, поблагодарите релизера, оцените раздачу и оставьте свои комментарий, если Вы скачали Бунт ушастых через торрент бесплатно! Внесите свою лепту в развитие PiratBit!
    Комментировать посты могут только пользователи прошедшие не сложную регистрацию
    Показать сообщения:    

    Бунт ушастых через торрент
    Скачать бесплатно Бунт ушастых
    Бунт ушастых скачать торрент
    Бунт ушастых смотреть онлайн
    Cкачать фильм Бунт ушастых бесплатно
    Бунт ушастых скачать торрент в хорошем качестве
    Бунт ушастых смотреть онлайн бесплатно в хорошем качестве


    Вы не можете начинать темы
    Вы не можете отвечать на сообщения
    Вы не можете редактировать свои сообщения
    Вы не можете удалять свои сообщения
    Вы не можете голосовать в опросах
    Вы не можете прикреплять файлы к сообщениям
    Вы можете скачивать файлы