2 сезон

iTunes

1 сезон

1

iTunes

iTunes

iTunes

1 сезон

RePack

30

ИГРА 18+

pack

ВАЖНО

!!Акция!!

Alien_RageХит недели

RePack

MK11
pack

Забери бонус

RePack

jed

!!Акция!!

Alien_Rage

RePack

fifa19

RePack

Assassins Creed: Odyssey

RePack

NEED FOR SPEED™ PAYBACK

4 сезон

9 сезон

Бесстыжие 9 сезон

Все сериалы

все сериалы на PB.wtf

RePack

FAR CRY 5
  

Услышь мое сердце (Флюза Фархшатова) [2010 г., мелодрама, DVDRip] pb.wtf

Услышь мое сердце через торрент pb.wtf

Размер: 1.36 GB | Добавлен: 9 лет 1 мес. назад | Торрент скачан:48 раз
Скачать  

05-09-2011 10:41 Услышь мое сердце Скачать торрент  

Услышь мое сердцеГод выпуска: 2010
Страна: Россия
Жанр: мелодрама
Продолжительность: 01:26:32

Режиссер: Флюза Фархшатова
Продюссер: Тимур Вайнштейн, Александр Кушаев, Роман Елистратов
Сценарий: Ирина Кмит

Мировой рейтинг IMDB


Премьера (РФ): 29.08.2010

В ролях: Дмитрий Исаев, Людмила Свитова, Агния Кузнецова, Татьяна Лютаева, Людмила Нильская, Алена Яковлева

Описание: Провинциальная девушка Таня Клочкова работает официанткой в кафе, расположенном на трассе, и живет с матерью в поселке. Здесь у нее есть лучшая подруга Люда и влюбленный в нее друг детства Боря. Но судьба не преподносит ей сюрпризов, а другая, красивая и яркая жизнь, проносится мимо.Однажды в кафе заходит Кирилл, молодой и успешный москвич. Он влюбляется в простую и обаятельную Таню, и она отвечает ему взаимностью. Вскоре он увозит ее с собой в Москву.Но влюбленность Кирилла быстро проходит и сменяется раздражением — он понимает, что ошибся... В это время Таня узнает о своей беременности, но это известие лишь подливает масла в огонь: Кирилл предлагает ей избавиться от ребенка, и молодые люди расстаются окончательно.Красивая жизнь Тани длилась недолго, теперь ей остается лишь пожинать ее горькие плоды. Девушка возвращается в родной поселок, где ей предстоит пройти через множество других испытаний...

Качество: DVDRip
Формат: MPEG
Видео кодек: XviD
Аудио кодек: AC3
Видео: ~1864 Kbit/s, 720 x 400
Аудио: 384 Kbit/s, AC3 5.1
General
Complete name : E:\Файлю uTorrent\Завершенные файлы\Uslysch.moje.serdze.2010.XviD.DVDRip.avi
Format : AVI
Format/Info : Audio Video Interleave
File size : 1.36 GiB
Duration : 1h 26mn
Overall bit rate : 2 258 Kbps
Writing application : VirtualDubMod 1.5.10.2 (build 2540/release)
Writing library : VirtualDubMod build 2540/release

Video
ID : 0
Format : MPEG-4 Visual
Format profile : Advanced Simple@L5
Format settings, BVOP : Yes
Format settings, QPel : No
Format settings, GMC : No warppoints
Format settings, Matrix : Default (H.263)
Codec ID : XVID
Codec ID/Hint : XviD
Duration : 1h 26mn
Bit rate : 1 864 Kbps
Width : 720 pixels
Height : 400 pixels
Display aspect ratio : 16:9
Frame rate : 25.000 fps
Color space : YUV
Chroma subsampling : 4:2:0
Bit depth : 8 bits
Scan type : Progressive
Bits/(Pixel*Frame) : 0.259
Stream size : 1.13 GiB (83%)
Writing library : XviD 1.2.1 (UTC 2008-12-04)

Audio
ID : 1
Format : AC-3
Format/Info : Audio Coding 3
Mode extension : CM (complete main)
Codec ID : 2000
Duration : 1h 26mn
Bit rate mode : Constant
Bit rate : 384 Kbps
Channel(s) : 6 channels
Channel positions : Front: L C R, Side: L R, LFE
Sampling rate : 48.0 KHz
Stream size : 238 MiB (17%)
Alignment : Split accross interleaves
Interleave, duration : 40 ms (1.00 video frame)
Interleave, preload duration : 500 ms




pb.wtf



Скачать Услышь мое сердце через торрент http://lostpic.net/images/400c9399933c7ca289384a56ce3bc42c.jpg Скачать фильм Услышь мое сердце через торрент бесплантно в хорошем качестве Описание: Провинциальная девушка Таня Клочкова работает официанткой в кафе, расположенном на трассе, и живет с матерью в поселке. Здесь ... 1 10 1
Info! Золотая раздача, скачанное не засчитывается.
Торрент: Зарегистрирован [2011-09-05 10:41] · скачан: 48 раз
Статус: √ проверено
Размер: 1.36 GB
Как cкачать? Как скачать Услышь мое сердце через торрент | qTorrent

% Раздел Тема Автор DL S | L
Наши фильмы 2010-2011 [ 706 MB ] Услышь мое сердце [2010 SATRip] aspace Скачать
1 | 0

28-11-2019 20:33  

Отключить всю рекламу на сайте

    Дорогой пользователь! Огромная просьба, поблагодарите релизера, оцените раздачу и оставьте свои комментарий, если Вы скачали Услышь мое сердце через торрент бесплатно! Внесите свою лепту в развитие PiratBit!
    Комментировать посты могут только пользователи прошедшие не сложную регистрацию
    Показать сообщения:    

    Услышь мое сердце через торрент
    Скачать бесплатно Услышь мое сердце
    Услышь мое сердце скачать торрент
    Услышь мое сердце смотреть онлайн
    Cкачать фильм Услышь мое сердце бесплатно
    Услышь мое сердце скачать торрент в хорошем качестве
    Услышь мое сердце смотреть онлайн бесплатно в хорошем качестве


    Вы не можете начинать темы
    Вы не можете отвечать на сообщения
    Вы не можете редактировать свои сообщения
    Вы не можете удалять свои сообщения
    Вы не можете голосовать в опросах
    Вы не можете прикреплять файлы к сообщениям
    Вы можете скачивать файлы