1 сезон

1 сезон

iTunes

1

КиноПоиск HD

Кинопоиск HD

iTunes

13

1 сезон

RePack

30

Ultimate

ВАЖНО

ИГРА 18+

pack

RePack

MK11
pack

Легкие деньги

RePack

jed

RePack

fifa19

RePack

RDR2

RePack

NEED FOR SPEED™ PAYBACK

4 сезон

9 сезон

Бесстыжие 9 сезон

Все сериалы

все сериалы на PB.wtf

RePack

FAR CRY 5
  
Magnet ссылка

Изгоняющий дьявола: Начало / Exorcist: The Beginning (Ренни Харлин) [2004 г., ужасы, триллер, детектив, DVDRip] pb.wtf

Изгоняющий дьявола: Начало через торрент pb.wtf

Размер: 1.37 GB | Добавлен: 9 лет 7 мес. назад | Торрент скачан:195 раз
Скачать  

05-09-2011 11:13 Изгоняющий дьявола: Начало Скачать торрент  

Изгоняющий дьявола: Начало / Exorcist: The Beginning

Год выпуска: 2004
Страна: США
Жанр: ужасы, триллер, детектив
Продолжительность: 01:48:55
Перевод: Профессиональный (многоголосый, закадровый)

Режиссер: Ренни Харлин
Продюссер: Джеймс Дж. Робинсон, Омнея ’Нини’ Мазен, Гай МакЭлвайн
Сценарий: Уильям Питер Блэтти, Уильям Уишер мл., Кэлеб Кэрр

Бюджет: $80 000 000
Премьера в мире: 18 августа 2004

R
-Лицам до 17 лет обязательно присутствие взрослого
Мировой рейтинг IMDB 5.00 (17 788)
[URL=https://piratbit.top/goo.php?URL=https://piratbit.top/goo.php?url=http://multi-up.com/550504]

В ролях: Стеллан Скарсгард, Изабелла Скорупко, Джеймс Д`Арси, Реми Суини, Джулиан Вэдхэм, Эндрю Френч, Ральф Браун, Бен Кросс, Дэвид Брэдли, Алан Форд, Энтони Камерлинг, Eddie Osei, Israel Aduramo, Патрик О`Кейн, Джеймс Беллами, Сесилия Амати, Matti Ristinen, Lidia Darly, James Paparella, Сильвио Хименез Эрнандез ...

Описание: После Второй мировой войны отец Меррин, отягощенный воспоминаниями об ужасах войны и усомнившийся в своем призвании, решил сложить сан и покинуть Европу. Вспомнив о своем дипломе археолога, Меррин присоединился к экспедиции, занимающейся раскопками в отдаленном районе Африки. Экспедиция обнаруживает прекрасную церковь в византийском стиле, погребенную под землей в тот самый день, когда она была построена. Под церковью Меррин находит еще более древний склеп, оказавшийся обителью Князя тьмы, столетия дожидавшегося возможности вырваться на волю...

Качество: DVDRip
Формат: MPEG
Видео кодек: DivX
Аудио кодек: AC3
Видео: ~1562kb/s, 720x304
Аудио: 224kb/s , AC-3 (2канала)
[/url]
Общее
Полное имя : D:\Мои видеозаписи\Фильмачки\NNM-Club\[NNM-Club] ИД_Начало.avi
Формат : AVI
Формат/Информация : Audio Video Interleave
Размер файла : 1,37 Гбайт
Продолжительность : 1 ч. 48 м.
Общий поток : 1796 Кбит/сек
Программа кодирования : VirtualDubModRus 1.5.10.2 (build 2540/release)
Библиотека кодирования : VirtualDubMod build 2540/release

Видео
Идентификатор : 0
Формат : MPEG-4 Visual
Профиль формата : Advanced Simple@L5
Параметр BVOP формата : 2
Параметр QPel формата : Нет
Параметр GMC формата : Без точки перехода
Параметр матрицы формата : Default (MPEG)
Режим смешивания : Сжатый битовый поток
Идентификатор кодека : DIVX
Идентификатор кодека/Информация : Project Mayo
Идентификатор кодека/Подсказка : DivX 4
Продолжительность : 1 ч. 48 м.
Битрейт : 1562 Кбит/сек
Ширина : 720 пикс.
Высота : 304 пикс.
Соотношение сторон : 2,35:1
Частота кадров : 25,000 кадр/сек
Цветовое пространство : YUV
Подвыборка цветности : 4:2:0
Битовая глубина : 8 бит
Тип развёртки : Прогрессивная
Метод сжатия : С потерями
Бит/(Пиксели*Кадры) : 0.285
Размер потока : 1,19 Гбайт (87%)
Библиотека кодирования : XviD 1.2.0SMP (UTC 2006-01-08)

Аудио
Идентификатор : 1
Формат : AC-3
Формат/Информация : Audio Coding 3
Расширение режима : CM (complete main)
Идентификатор кодека : 2000
Продолжительность : 1 ч. 48 м.
Вид битрейта : Постоянный
Битрейт : 224 Кбит/сек
Каналы : 2 канала
Расположение каналов : Front: L R
Частота : 48,0 КГц
Битовая глубина : 16 бит
Метод сжатия : С потерями
Размер потока : 175 Мбайт (12%)
Выравнивание : Разделение по промежуткам
Продолжительность промежутка : 40 мс. (1,00 видеокадр)
Время предзагрузки промежутка : 500 ms
pb.wtf



Скачать Изгоняющий дьявола: Начало через торрент http://lostpic.net/images/ff042133784de0194eaffe4e510d6170.jpg Скачать фильм Изгоняющий дьявола: Начало через торрент бесплантно в хорошем качестве Описание: После Второй мировой войны отец Меррин, отягощенный воспоминаниями об ужасах войны и усомнившийся в своем призвании, решил ... 10 10 1
Info! Золотая раздача, скачанное не засчитывается.
Торрент: Зарегистрирован [2011-09-05 11:13] · скачан: 195 раз
Статус: √ проверено
Размер: 1.37 GB
Как cкачать? Как скачать Изгоняющий дьявола: Начало через торрент | UTorrent

% Раздел Тема Автор DL S | L
Фильмы [HD 720p, 1080p] (Хороший звук DUB, MVO) [ 4.15 GB ] Изгоняющий дьявола: Начало / Exorcist: The Beginning [2004 BDRip 720p by msltel] 2 x MVO msltel Скачать
1 | 0
Фильмы [HD 720p, 1080p] (Хороший звук DUB, MVO) [ 10.66 GB ] Изгоняющий дьявола: Начало / Exorcist: The Beginning [2004 BDRip 1080p by msltel] 2 x MVO msltel Скачать
1 | 0
R.G. Resident & PiratVoice - Фильмы, Видео [ 1.76 GB ] Изгоняющий дьявола: Начало / Exorcist: The Beginning [2004 HDRip ] от R.G. Resident Dean24 Скачать
1 | 0
Фильмы [HD 720p, 1080p] (Хороший звук DUB, MVO) [ 7.93 GB ] Изгоняющий дьявола: Начало / Exorcist: The Beginning [2004 BDRip 1080p от еnvy / NNNB] MVO еnvy Скачать
1 | 0
Фильмы 2001-2005 [ 745 MB ] Изгоняющий дьявола: Начало / Exorcist: The Beginning [2004 HDTVRip] -=Cherry=- Скачать
1 | 0

28-11-2019 20:33  

Отключить всю рекламу на сайте

05-09-2011 11:26 Изгоняющий дьявола: Начало Скачать торрент  

че то знакомое, немогу вспомнить, толи видел толи нет!!pb.wtf



05-09-2011 11:38 Изгоняющий дьявола: Начало Скачать торрент  

я тоже вспоминала!!!неплохой фильм!!pb.wtf



05-09-2011 13:38 Изгоняющий дьявола: Начало Скачать торрент  

я видал. смотреть можно. у меня на dvd года 4 лежитpb.wtf



14-07-2012 08:51 Изгоняющий дьявола: Начало Скачать торрент  

фильм супер :good:pb.wtf



    Дорогой пользователь! Огромная просьба, поблагодарите релизера, оцените раздачу и оставьте свои комментарий, если Вы скачали Изгоняющий дьявола: Начало через торрент бесплатно! Внесите свою лепту в развитие PiratBit!
    Комментировать посты могут только пользователи прошедшие не сложную регистрацию
    Показать сообщения:    

    Изгоняющий дьявола: Начало через торрент
    Скачать бесплатно Изгоняющий дьявола: Начало
    Изгоняющий дьявола: Начало скачать торрент
    Изгоняющий дьявола: Начало смотреть онлайн
    Cкачать фильм Изгоняющий дьявола: Начало бесплатно
    Изгоняющий дьявола: Начало скачать торрент в хорошем качестве
    Изгоняющий дьявола: Начало смотреть онлайн бесплатно в хорошем качестве


    Вы не можете начинать темы
    Вы не можете отвечать на сообщения
    Вы не можете редактировать свои сообщения
    Вы не можете удалять свои сообщения
    Вы не можете голосовать в опросах
    Вы не можете прикреплять файлы к сообщениям
    Вы можете скачивать файлы