2 сезон

iTunes

1 сезон

1

iTunes

iTunes

iTunes

1 сезон

RePack

30

ИГРА 18+

pack

ВАЖНО

!!Акция!!

Alien_RageХит недели

RePack

MK11
pack

Забери бонус

RePack

jed

!!Акция!!

Alien_Rage

RePack

fifa19

RePack

Assassins Creed: Odyssey

RePack

NEED FOR SPEED™ PAYBACK

4 сезон

9 сезон

Бесстыжие 9 сезон

Все сериалы

все сериалы на PB.wtf

RePack

FAR CRY 5
  

Ханна. Совершенное оружие / Hanna (Джо Райт) [2011 г., боевик, триллер, криминал, детектив, BDRip (720p)] pb.wtf

Ханна. Совершенное оружие через торрент pb.wtf

Размер: 4.37 GB | Добавлен: 9 лет 1 мес. назад | Торрент скачан:91 раз
Скачать  

06-09-2011 09:55 Ханна. Совершенное оружие Скачать торрент  

Ханна. Совершенное оружие / HannaГод выпуска: 2011
Страна: США, Германия, Великобритания
Жанр: боевик, триллер, криминал, детектив
Продолжительность: 01:50:50
Перевод: Профессиональный (полное дублирование)

Режиссер: Джо Райт
Сценарий: Сет Локхед, Дэвид Фарр

Бюджет: $30 000 000
Мировая премьера: 7 апреля 2011
Релиз на Blu-Ray: 9 июня 2011, «Мистерия Звука»


IMDB: 7.0/10
MPAA - PG-13

В ролях: Сирша Ронан, Эрик Бана, Кейт Бланшетт, Том Холландер, Пэрис Эрроусмит, Оливия Уильямс, Джейсон Флеминг, Джон Макмилла, Тим Бекманн, Вики Крипс

Описание: 16-летняя Ханна Хеллер выросла в лесу на севере Финляндии со своим отцом Эриком. Она не знает, что такое современные технологии, зато говорит на многих языках и обладает навыками выживания. Когда придет время, её умение убивать станет орудием мести в руках Эрика. Цель Ханны — Марисса Виглер, агент ЦРУ. Настает день, когда Эрик даёт радиопередатчик, и Ханна посылает сигнал для обнаружения своего местонахождения Виглер.

Эрик уходит, оставляя Ханну группе спецназа. Девушка оказывается на секретной базе ЦРУ в Марокко. В свое время Марисса должна была убить предавшего агентство Эрика, чтобы замести следы некого тайного проекта, который не должен был стать известен общественности. На допросе Ханна просит встречи с Виглер и во время разговора с ней девушка легко убивает её, после чего сбегает с базы вместе с украденным файлом о своем ДНК. Ханна еще не знает, что Марисса вместо себя послала на смерть двойника.


Качество: BDRip
Формат: MKV
Видео кодек: H.26x
Аудио кодек: DTS
Видео: 1280х544, 24,000 fps, 4135 kbps, 0.247 bit/pixel
Аудио: DTS 5.1 (48 kHz / 1510 kbps / 24-bit) (Русский)
Субтитры: вшитые отключаемые, SRT - Русский (forced)

&
Полное имя : D:\HD-1\Hanna.2011.BDRip.720p-PT.mkv
Формат : Matroska
Размер файла : 4,37 Гбайт
Продолжительность : 1 ч. 50 м.
Общий поток : 5644 Кбит/сек
Дата кодирования : UTC 2011-09-06 04:21:28
Программа кодирования : mkvmerge v4.8.0 ('I Got The...') сборка от May 24 2011 03:12:58
Библиотека кодирования : libebml v1.2.0 + libmatroska v1.1.0

Видео
Идентификатор : 1
Формат : AVC
Формат/Информация : Advanced Video Codec
Профиль формата : High@L4.1
Параметр CABAC формата : Да
Параметр ReFrames формата : 4 кадра
Идентификатор кодека : V_MPEG4/ISO/AVC
Продолжительность : 1 ч. 50 м.
Битрейт : 4135 Кбит/сек
Ширина : 1280 пикс.
Высота : 544 пикс.
Соотношение сторон : 2,35:1
Частота кадров : 24,000 кадр/сек
Цветовое пространство : YUV
Подвыборка цветности : 4:2:0
Битовая глубина : 8 бит
Тип развёртки : Прогрессивная
Бит/(Пиксели*Кадры) : 0.247
Размер потока : 3,11 Гбайт (71%)
Заголовок : Ханна / Hanna (2011) BDRip [720p] от PowerTracker.org (Rulya74)
Библиотека кодирования : x264 core 115 r1995 c1e60b9
Настройки программы : cabac=1 / ref=3 / deblock=1:-3:-3 / analyse=0x3:0x113 / me=umh / subme=9 / psy=1 / psy_rd=1.00:0.00 / mixed_ref=1 / me_range=24 / chroma_me=1 / trellis=1 / 8x8dct=1 / cqm=0 / deadzone=21,11 / fast_pskip=1 / chroma_qp_offset=-2 / threads=3 / sliced_threads=0 / nr=0 / decimate=1 / interlaced=0 / bluray_compat=0 / constrained_intra=0 / bframes=3 / b_pyramid=2 / b_adapt=1 / b_bias=0 / direct=1 / weightb=1 / open_gop=0 / weightp=2 / keyint=250 / keyint_min=24 / scenecut=40 / intra_refresh=0 / rc=2pass / mbtree=0 / bitrate=4135 / ratetol=1.0 / qcomp=0.60 / qpmin=10 / qpmax=51 / qpstep=4 / cplxblur=20.0 / qblur=0.5 / ip_ratio=1.40 / pb_ratio=1.30 / aq=1:1.00

Аудио
Идентификатор : 2
Формат : DTS
Формат/Информация : Digital Theater Systems
Идентификатор кодека : A_DTS
Продолжительность : 1 ч. 50 м.
Вид битрейта : Постоянный
Битрейт : 1510 Кбит/сек
Каналы : 6 каналов
Расположение каналов : Front: L C R, Side: L R, LFE
Частота : 48,0 КГц
Битовая глубина : 24 бит
Метод сжатия : С потерями
Размер потока : 1,17 Гбайт (27%)
Заголовок : Дубляж
Язык : Russian

Текст
Идентификатор : 3
Формат : UTF-8
Идентификатор кодека : S_TEXT/UTF8
Идентификатор кодека/Информация : UTF-8 Plain Text
Заголовок : forced
Язык : Russian



pb.wtf



Скачать Ханна. Совершенное оружие через торрент http://lostpic.net/images/ab620af9cb8a64ba4a50a17804337322.png Скачать фильм Ханна. Совершенное оружие через торрент бесплантно в хорошем качестве Описание: 16-летняя Ханна Хеллер выросла в лесу на севере Финляндии со своим отцом Эриком. Она не знает, что такое современные технологии, ... 8.2 10 6
Info! Золотая раздача, скачанное не засчитывается.
Торрент: Зарегистрирован [2011-09-06 09:55] · скачан: 91 раз
Статус: √ проверено
Размер: 4.37 GB
Как cкачать? Как скачать Ханна. Совершенное оружие через торрент | qTorrent

% Раздел Тема Автор DL S | L
Фильмы 2011 [ 1.45 GB ] Ханна. Совершенное оружие / Hanna [2011 HDRip] Zormeg Скачать
1 | 0
Фильмы (Blu-ray, BD-Remux, HDDVD) [ 27.85 GB ] Ханна. Совершенное оружие / Hanna [2011 Германия BDRemux 1080p] DUB Sub Rus + Original Eng walle Скачать
1 | 0
Фильмы [HD 720p, 1080p] (Хороший звук DUB, MVO) [ 15.1 GB ] Ханна. Совершенное оружие / Hanna [2011 Германия BDRip1080p] DUB Sub rus + original eng Shmel Скачать
1 | 0
Фильмы 2011 [ 1.36 GB ] Ханна. Совершенное оружие / Hanna [2011 DVDRip лицензия] SD Скачать
1 | 0
Фильмы [HD 720p, 1080p] (Хороший звук DUB, MVO) [ 7.59 GB ] Ханна. Совершенное оружие / Hanna [2011 BDRip 1080р] smaster Скачать
1 | 0
Фильмы 2011 [ 1.45 GB ] Ханна. Совершенное оружие / Hanna [2011 BDRip-AVC лицензия] shuller Скачать
1 | 0
Фильмы (DVD фильмы) [ 5 GB ] Ханна. Совершенное оружие / Hanna [2011 Германия DVD9] R5 «Вольга» voovaz Скачать
1 | 0


Последний раз редактировалось: rulya74 (2011-09-06 12:49), всего редактировалось 1 раз

28-11-2019 20:33  

Отключить всю рекламу на сайте

06-09-2011 12:03 Ханна. Совершенное оружие Скачать торрент  

Давно хотел посмотреть.pb.wtf



    Дорогой пользователь! Огромная просьба, поблагодарите релизера, оцените раздачу и оставьте свои комментарий, если Вы скачали Ханна. Совершенное оружие через торрент бесплатно! Внесите свою лепту в развитие PiratBit!
    Комментировать посты могут только пользователи прошедшие не сложную регистрацию
    Показать сообщения:    

    Ханна. Совершенное оружие через торрент
    Скачать бесплатно Ханна. Совершенное оружие
    Ханна. Совершенное оружие скачать торрент
    Ханна. Совершенное оружие смотреть онлайн
    Cкачать фильм Ханна. Совершенное оружие бесплатно
    Ханна. Совершенное оружие скачать торрент в хорошем качестве
    Ханна. Совершенное оружие смотреть онлайн бесплатно в хорошем качестве


    Вы не можете начинать темы
    Вы не можете отвечать на сообщения
    Вы не можете редактировать свои сообщения
    Вы не можете удалять свои сообщения
    Вы не можете голосовать в опросах
    Вы не можете прикреплять файлы к сообщениям
    Вы можете скачивать файлы