1 сезон

3 сезон

iTunes

1

iTunes

MVO

iTunes

13

1 сезон

RePack

30

Deluxe

pack

Лицензия

ВАЖНО

ИГРА 18+

pack

RePack

MK11

RePack

jed

RePack

fifa19

RePack

RDR2

RePack

NEED FOR SPEED™ PAYBACK

4 сезон

9 сезон

Бесстыжие 9 сезон

Все сериалы

все сериалы на PB.wtf

RePack

FAR CRY 5

Anonymous, доброй ночи, мы катастрофически не успеваем собрать деньги на оплату серверов, помогите нам пожалуйста 5,10,15р., для нас важна любая помощь . В качестве благодарности мы отключим Вам всю рекламу на сайте (укажите свой ник в строку Ваше имя)!

×
  
Magnet ссылка

Клиент / Client, The (Джоэл Шумахер) [1994 г., триллер, драма, детектив, DVD5] pb.wtf

Клиент через торрент pb.wtf

Размер: 4.33 GB | Добавлен: 9 лет назад | Торрент скачан:12 раз
Скачать  

06-09-2011 20:28 Клиент Скачать торрент  

Клиент / Client, The

Год выпуска: 1994
Страна: США
Жанр: триллер, драма, детектив
Продолжительность: 01:55:46

Перевод: Многоголосый закадровый (профессиональный)
Язык субтитров: Русские
Вид субтитров: Вшитые

Режиссер: Джоэл Шумахер
Продюссер: Гай Ферленд, Мэри МакЛаглен, Арнон Милчэн
Сценарий: Джон Гришем, Акива Голдсман, Роберт Гетчелл

Бюджет: $45 000 000


PG-13
-Детям до 13 лет просмотр не желателен
Мировой рейтинг IMDB 6.50 (21 355)


В ролях: Сьюзэн Сарандон, Томми Ли Джонс, Мэри-Луиз Паркер, Энтони ЛаПалья, Дж.Т. Уолш, Энтони Эдвардс, Брэд Ренфро, Уилл Паттон, Брэдли Уитфорд, Энтони Хилд

Описание: Триллер поставлен по бестселлеру Джона Гришэма ("Фирма", "Дело о пеликанах"), что уже говорит о качестве сюжета. Марк, парнишка из неблагополучной семьи, оказался свидетелем самоубийства адвоката мафии. Перед смертью адвокат сказал мальчику, где спрятан труп сенатора, убитого мафией. Мальчик тем самым становится нежелательным свидетелем, и мафия пытается его убить. Одновременно агенты ФБР, ведомые энергичным окружным прокурором (Джонс) требуют, чтобы ребенок дал показания. Надо сказать, что пацан оказался смышлёный и боевой - он нанимает себе адвоката Реджи Лав (Сарандон), которая не только защищает его права, но и помогает ему остаться в живых.

Качество: DVD5
Формат: VOB
Видео кодек: MPEG
Аудио кодек: AC3
Видео: ~4890kb/s, PAL 4:3 (720x576) VBR
Аудио:
№1: AC3 2.0, 224Kbps - Английский(Оригинал),
№2: AC3 2.0, 224Kbps - Русский(Многоголосый закадровый)

Общее
Полное имя : D:\Films\Сlient\VIDEO_TS\VTS_01_1.VOB
Формат : MPEG-PS
Размер файла : 1024 Мбайт
Продолжительность : 26 м.
Общий поток : 5446 Кбит/сек

Видео
Идентификатор : 224 (0xE0)
Формат : MPEG Video
Версия формата : Version 2
Профиль формата : Main@Main
Параметр BVOP формата : Да
Параметр матрицы формата : По умолчанию
Параметры GOP формата : M=3, N=15
Продолжительность : 26 м.
Вид битрейта : Переменный
Битрейт : 4890 Кбит/сек
Ширина : 720 пикс.
Высота : 576 пикс.
Соотношение сторон : 4:3
Частота кадров : 25,000 кадр/сек
Стандарт вещания : PAL
Цветовое пространство : YUV
Подвыборка цветности : 4:2:0
Битовая глубина : 8 бит
Тип развёртки : Чересстрочная
Порядок развёртки : Верхнее поле первое
Метод сжатия : С потерями
Бит/(Пиксели*Кадры) : 0.472
Размер потока : 919 Мбайт (90%)

Аудио #1
Идентификатор : 189 (0xBD)-128 (0x80)
Формат : AC-3
Формат/Информация : Audio Coding 3
Расширение режима : CM (complete main)
Режим смешивания : DVD-Video
Продолжительность : 26 м.
Вид битрейта : Постоянный
Битрейт : 224 Кбит/сек
Канал(ы) : 2 канала(ов)
Расположение каналов : Front: L R
Частота : 48,0 КГц
Битовая глубина : 16 бит
Метод сжатия : С потерями
Задержка видео : -80 мс.
Размер потока : 42,1 Мбайт (4%)

Аудио #2
Идентификатор : 189 (0xBD)-129 (0x81)
Формат : AC-3
Формат/Информация : Audio Coding 3
Расширение режима : CM (complete main)
Режим смешивания : DVD-Video
Продолжительность : 26 м.
Вид битрейта : Постоянный
Битрейт : 224 Кбит/сек
Канал(ы) : 2 канала(ов)
Расположение каналов : Front: L R
Частота : 48,0 КГц
Битовая глубина : 16 бит
Метод сжатия : С потерями
Задержка видео : -80 мс.
Размер потока : 42,1 Мбайт (4%)

Текст
Идентификатор : 189 (0xBD)-32 (0x20)
Формат : RLE
Формат/Информация : Run-length encoding
Режим смешивания : DVD-Video

Меню

Title:
Size: 4.33 Gb ( 4 538 898 KBytes ) - DVD-5
Enabled regions: 5

VTS_01 :
Play Length: 01:55:46
Video: PAL 4:3 (720x576) VBR
Audio:
Russian (Dolby AC3, 2 ch)
English (Dolby AC3, 2 ch)
Subtitles:
Russian


pb.wtf



Скачать Клиент через торрент http://lostpic.net/images/b781876745b82e2643e31100432a0be3.jpg Скачать фильм Клиент через торрент бесплантно в хорошем качестве Описание: Триллер поставлен по бестселлеру Джона Гришэма ("Фирма", "Дело о пеликанах"), что уже говорит о качестве сюжета. Марк, парнишка ... 5 10 5
Info! Золотая раздача, скачанное не засчитывается.
Торрент: Зарегистрирован [2011-09-06 20:28] · скачан: 12 раз
Статус: √ проверено
Размер: 4.33 GB
Как cкачать? Как скачать Клиент через торрент | UTorrent

% Раздел Тема Автор DL S | L
Фильмы [HD 720p, 1080p] (Хороший звук DUB, MVO) [ 5.11 GB ] Клиент / The Client [1994 BDRip 720p by msltel] DUB 3 x MVO DVO 2 x AVO msltel Скачать
1 | 0
Фильмы [HD 720p, 1080p] (Хороший звук DUB, MVO) [ 17.16 GB ] Клиент / The Client [1994 BDRip 1080p by msltel] DUB 3 x MVO DVO 2 x AVO msltel Скачать
1 | 0
Фильмы до 2000 г. [ 2.17 GB ] Клиент / The Client [1994 HDRip-AVC DVO AVO] кэп Скачать
1 | 0
Порно фильмы с сюжетом [ 1.36 GB ] Список Клиентов XXX Пародия / Official The Client List Parody [2012 Feature Couples Vignettes PornStars Spoofs & Parodies DVDRip Оригинал] sheker187 Скачать
1 | 0
Фильмы до 2000 г. [ 2 GB ] Клиент / The Client [1994 DVDRip] [AVO] killermax2013 Скачать
1 | 0
Видео для КПК и Смартфонов [ 936 MB ] Клиент / The Client [1994 HDTVRip] / НТВ+ Страна Скачать
1 | 0
Зарубежные сериалы [ 5.37 GB ] Список клиентов / The Client List / Сезон: 1 / Серии 1-10 [2012 WEB-DLRip] wekotila Скачать
1 | 0


Последний раз редактировалось: =GAS= (2011-09-07 19:13), всего редактировалось 4 раз(а)

28-11-2019 20:33  

Отключить всю рекламу на сайте

06-09-2011 20:47 Клиент Скачать торрент  

фильм просто супер ! кто не видел - смотреть ! ;)

жаль, конечно, Брэда - парня , который играл Марка....умер от передозировки :(pb.wtf



06-09-2011 21:41 Клиент Скачать торрент  

1. Перевод: Многоголосый, закадровый - Любительский или профессиональный?
2. Формат: MPEG
3. Отсутствует строка Видео кодек:
4. Скриншоты меню пожалуйстаpb.wtf



    Дорогой пользователь! Огромная просьба, поблагодарите релизера, оцените раздачу и оставьте свои комментарий, если Вы скачали Клиент через торрент бесплатно! Внесите свою лепту в развитие PiratBit!
    Комментировать посты могут только пользователи прошедшие не сложную регистрацию
    Показать сообщения:    

    Клиент через торрент
    Скачать бесплатно Клиент
    Клиент скачать торрент
    Клиент смотреть онлайн
    Cкачать фильм Клиент бесплатно
    Клиент скачать торрент в хорошем качестве
    Клиент смотреть онлайн бесплатно в хорошем качестве


    Вы не можете начинать темы
    Вы не можете отвечать на сообщения
    Вы не можете редактировать свои сообщения
    Вы не можете удалять свои сообщения
    Вы не можете голосовать в опросах
    Вы не можете прикреплять файлы к сообщениям
    Вы можете скачивать файлы