1 сезон

1 сезон

iTunes

1

КиноПоиск HD

Кинопоиск HD

iTunes

13

1 сезон

RePack

30

Новинка

ВАЖНО

ИГРА 18+

pack

RePack

MK11
pack

Легкие деньги

RePack

jed

RePack

fifa19

RePack

RDR2

RePack

NEED FOR SPEED™ PAYBACK

4 сезон

9 сезон

Бесстыжие 9 сезон

Все сериалы

все сериалы на PB.wtf

RePack

FAR CRY 5
  
Magnet ссылка

Открытый простор / Open Range (Кевин Костнер) [2003 г., драма, мелодрама, вестерн, BDRip] pb.wtf

Открытый простор через торрент pb.wtf

Размер: 2.18 GB | Добавлен: 9 лет 7 мес. назад | Торрент скачан:38 раз
Скачать  

07-09-2011 05:46 Открытый простор Скачать торрент  

Открытый простор / Open Range Год выпуска: 2003
Страна: США
Жанр: драма, мелодрама, вестерн
Продолжительность: 02:18:53
Перевод: Дублированный + Многоголосый закадровый (Держиморда Фильмс)

Режиссер: Кевин Костнер
Сценарий: Лоран Пэйн, Крэйг Сторпер

Бюджет: $22 000 000
Премьера в мире: 11 августа 2003


IMDB: 7.5/10
MPAA - R

В ролях: Роберт Дювалл, Кевин Костнер, Аннетт Бенинг, Майкл Гэмбон, Майкл Джитер, Диего Луна, Джеймс Руссо, Абрахам Бенруби, Дин МакДермотт, Ким Коутс

Описание: Лишь на бескрайних просторах Америки Чарли Уэйт и Босс Спирмэн чувствуют воздух свободы. Смутное прошлое заставляет их оставаться в седле, сторонясь городов и людей. Но что-то меняется в душе одиночки Уэйта, когда он встречает Сью Барлоу там, где кое-кто взялся вершить свой закон. И когда напарники оказались связаны местью, то были уверены только в одном: что не станут бежать от опасности никогда!


Доп. информация: «Открытый простор» — вестерн 2003 года, основанный на романе «The Open Range Men» Лорена Пэйна. Режиссёром и сопродюсером фильма стал Кевин Костнер, который также сыграл одну из главных ролей вместе с Робертом Дювалем и Аннет Бенинг

Качество: BDRip
Формат: AVI
Видео кодек: XviD
Аудио кодек: AC3
Видео: 720х304, 23.976 fps, 1466 kbps, 0.279 bit/pixel
Аудио#1: 48 kHz, AC3 Dolby Digital, 3/2 (L,C,R,l,r) + LFE ch, 384.00 kbps (Дубляж)
Аудио#2: 48 kHz, AC3 Dolby Digital, 3/2 (L,C,R,l,r) + LFE ch, 384.00 kbps (Держиморда Фильмс)

&
Полное имя : D:\Роздачи\Open Range.2003.HQBDRip-PT.avi
Формат : AVI
Формат/Информация : Audio Video Interleave
Профиль формата : OpenDML
Размер файла : 2,18 Гбайт
Продолжительность : 2 ч. 18 м.
Общий поток : 2252 Кбит/сек
Название фильма : Открытый простор / Open Range (2003) BDRip
Режиссёр : Rulya74 [BD-Remux]
Программа кодирования : VirtualDubModRus 1.5.10.2 (build 2542/release)
Библиотека кодирования : VirtualDubMod build 2542/release
Правообладатель : www.PowerTracker.org

Видео
Идентификатор : 0
Формат : MPEG-4 Visual
Профиль формата : Advanced Simple@L5
Параметр BVOP формата : 2
Параметр QPel формата : Нет
Параметр GMC формата : Без точки перехода
Параметр матрицы формата : Default (H.263)
Режим смешивания : Сжатый битовый поток
Идентификатор кодека : XVID
Идентификатор кодека/Подсказка : XviD
Продолжительность : 2 ч. 18 м.
Битрейт : 1466 Кбит/сек
Ширина : 720 пикс.
Высота : 304 пикс.
Соотношение сторон : 2,35:1
Частота кадров : 23,976 кадр/сек
Цветовое пространство : YUV
Подвыборка цветности : 4:2:0
Битовая глубина : 8 бит
Тип развёртки : Прогрессивная
Метод сжатия : С потерями
Бит/(Пиксели*Кадры) : 0.279
Размер потока : 1,42 Гбайт (65%)
Библиотека кодирования : XviD 1.2.1 (UTC 2008-12-04)

Аудио #1
Идентификатор : 1
Формат : AC-3
Формат/Информация : Audio Coding 3
Расширение режима : CM (complete main)
Идентификатор кодека : 2000
Продолжительность : 2 ч. 18 м.
Вид битрейта : Постоянный
Битрейт : 384 Кбит/сек
Каналы : 6 каналов
Расположение каналов : Front: L C R, Side: L R, LFE
Частота : 48,0 КГц
Битовая глубина : 16 бит
Метод сжатия : С потерями
Размер потока : 381 Мбайт (17%)
Выравнивание : Разделение по промежуткам
Продолжительность промежутка : 42 мс. (1,00 видеокадр)
Время предзагрузки промежутка : 500 ms
Заголовок : Дубляж - R5

Аудио #2
Идентификатор : 2
Формат : AC-3
Формат/Информация : Audio Coding 3
Расширение режима : CM (complete main)
Идентификатор кодека : 2000
Продолжительность : 2 ч. 18 м.
Вид битрейта : Постоянный
Битрейт : 384 Кбит/сек
Каналы : 6 каналов
Расположение каналов : Front: L C R, Side: L R, LFE
Частота : 48,0 КГц
Битовая глубина : 16 бит
Метод сжатия : С потерями
Размер потока : 381 Мбайт (17%)
Выравнивание : Разделение по промежуткам
Продолжительность промежутка : 42 мс. (1,00 видеокадр)
Время предзагрузки промежутка : 500 ms
Заголовок : MVO (Держиморда Фильмс)



pb.wtf



Скачать Открытый простор через торрент http://lostpic.net/images/36ce53a9bc35c555fd4a80252af6dfd1.png Скачать фильм Открытый простор через торрент бесплантно в хорошем качестве Описание: Лишь на бескрайних просторах Америки Чарли Уэйт и Босс Спирмэн чувствуют воздух свободы. Смутное прошлое заставляет их оставаться ... 5 10 4
Info! Золотая раздача, скачанное не засчитывается.
Торрент: Зарегистрирован [2011-09-07 05:46] · скачан: 38 раз
Статус: √ проверено
Размер: 2.18 GB
Как cкачать? Как скачать Открытый простор через торрент | UTorrent

% Раздел Тема Автор DL S | L
Фильмы [HD 720p, 1080p] (Хороший звук DUB, MVO) [ 15.22 GB ] Открытый простор / Open Range [2003 BDRip 1080p by msltel] DUB 3 x MVO msltel Скачать
1 | 0
Фильмы [HD 720p, 1080p] (Хороший звук DUB, MVO) [ 6.84 GB ] Открытый простор / Open Range [2003 BDRip 720p by msltel] DUB 3 x MVO msltel Скачать
1 | 0
Фильмы 2001-2005 [ 2.19 GB ] Открытый простор / Open Range [2003 DVDRip ] DJERG Скачать
1 | 0
Фильмы 2001-2005 [ 2.91 GB ] Открытый простор / Open Range [2003 лицензия] кэп Скачать
1 | 0

28-11-2019 20:33  

Отключить всю рекламу на сайте

    Дорогой пользователь! Огромная просьба, поблагодарите релизера, оцените раздачу и оставьте свои комментарий, если Вы скачали Открытый простор через торрент бесплатно! Внесите свою лепту в развитие PiratBit!
    Комментировать посты могут только пользователи прошедшие не сложную регистрацию
    Показать сообщения:    

    Открытый простор через торрент
    Скачать бесплатно Открытый простор
    Открытый простор скачать торрент
    Открытый простор смотреть онлайн
    Cкачать фильм Открытый простор бесплатно
    Открытый простор скачать торрент в хорошем качестве
    Открытый простор смотреть онлайн бесплатно в хорошем качестве


    Вы не можете начинать темы
    Вы не можете отвечать на сообщения
    Вы не можете редактировать свои сообщения
    Вы не можете удалять свои сообщения
    Вы не можете голосовать в опросах
    Вы не можете прикреплять файлы к сообщениям
    Вы можете скачивать файлы