MEGA SALE -50% FORZA HORIZON 4 ULTIMATE+ВСЕ DLC+ОНЛАЙН всего за 599р. 299 руб. (супер цена). Внимание количество ограничено!!!

iTunes

1+1

iTunes

мы

iTunes

1

iTunes

Чернобыль

iTunes

Ральф против интернета

Лицензия

ПШазам

Лицензия

Игра престолов

Лицензия

30
pack

ВАЖНО

!!Акция!!

Alien_RageХит недели

RePack

Resident Evil 21

ИГРА 18+

pack

RePack

Metro:Exodus

!!Акция!!

Alien_Rage

RePack

fifa19

RePack

Assassins Creed: Odyssey

RePack

NEED FOR SPEED™ PAYBACK

3 сезон

9 сезон

Бесстыжие 9 сезон

Все сериалы

все сериалы на PB.wtf

RePack

FAR CRY 5
Ребята, катастрофически не хватает 7730р. для оплаты серверов за АВГУСТ (всвязи с блокировками трафик упал в 3 раза), 1-2р., выручайте.
  

Сладкая судьба / Sweet Karma (Эндрю Томас Хант) [2009 г., триллер, драма, криминал, BDRip] pb.wtf

Сладкая судьба через торрент pb.wtf

Размер: 4.11 GB | Добавлен: 8 лет назад | Торрент скачан:2 раза
Скачать  

07-09-2011 13:09 Сладкая судьба Скачать торрент  

Сладкая судьба / Sweet KarmaГод выпуска: 2009
Страна: Канада
Жанр: триллер, драма, криминал

Продолжительность: 01:26:07
Перевод: Любительский (одноголосый)
Субтитры: Отсутствуют

Режиссер: Эндрю Томас Хант
Продюссер: Чад Арчибальд, Майкл Пасцт, Pete Soltesz
Сценарий: James Fler, Эндрю Томас Хант, Майкл Пасцт

R
-Лицам до 17 лет обязательно присутствие взрослого
Мировой рейтинг IMDB 4.90 (511)


В ролях: Аврора Вайланткурт, Джон Токатлидис, Фрэнк Дж. Зупанчич, Кристиан Бако, Лаура МакЛин, Патриция Стасик, Лана Косенив, Марк Виб, Стив Ричард, Адам Томлинсон

Описание:
Фильм рассказывает о застенчивой, немой русской девушки. Ее сестра Анна уезжает в Канаду с яркими надеждами заработать деньги для них. Но надежды не оправдались сестра, ни когда не писала, не посылал деньги, она просто исчезла. Тело сестры обнаруживают в пригороде Торонто. Тогда девушка отправляется на другой континент, чтобы узнать правду и отомстить за смерть сестры.

Качество: BDRip
Формат: MKV
Видео кодек: MPEG-4 AVC/H.264
Аудио кодек: MP3
Видео: ~5141 Kbit/s, 1276 x 720
Аудио:
#1: MP3 2.0, 48.0 KHz, 192 Kbit/s (Русский, одноголосый ),
#2: DTS 5.1, 48.0 KHz, 1536 Kbit/s (Оригинальный английский)

Общее
Уникальный идентификатор : 250883051295984264058245629404272657969 (0xBCBE516F3308ED5D908675C0BDB80631)
Полное имя : D:\Торренты\Sweet.Karma.2009.BDRip.mkv
Формат : Matroska
Размер файла : 4,11 Гбайт
Продолжительность : 1 ч. 26 м.
Общий поток : 6838 Кбит/сек
Программа кодирования : mkvmerge v4.6.0 ('Still Crazy After All These Years') сборка от Mar 10 2011 02:50:32
Библиотека кодирования : libebml v1.2.0 + libmatroska v1.1.0

Видео
Идентификатор : 1
Формат : AVC
Формат/Информация : Advanced Video Codec
Профиль формата : High@L4.1
Параметр CABAC формата : Да
Параметр ReFrames формата : 8 кадров
Режим смешивания : Header stripping
Идентификатор кодека : V_MPEG4/ISO/AVC
Продолжительность : 1 ч. 26 м.
Битрейт : 5141 Кбит/сек
Ширина : 1276 пикс.
Высота : 720 пикс.
Соотношение сторон : 16:9
Частота кадров : 25,000 кадр/сек
Цветовое пространство : YUV
Подвыборка цветности : 4:2:0
Битовая глубина : 8 бит
Тип развёртки : Прогрессивная
Бит/(Пиксели*Кадры) : 0.224
Размер потока : 3,01 Гбайт (73%)
Заголовок : Sweet.Karma.2009.BluRay.720p.x264.DTS.MySilu
Библиотека кодирования : x264 core 116 r2019 9cc407d
Настройки программы : cabac=1 / ref=8 / deblock=1:-2:-2 / analyse=0x3:0x133 / me=umh / subme=9 / psy=1 / psy_rd=1.20:0.20 / mixed_ref=1 / me_range=16 / chroma_me=1 / trellis=2 / 8x8dct=1 / cqm=0 / deadzone=21,11 / fast_pskip=1 / chroma_qp_offset=-3 / threads=12 / sliced_threads=0 / nr=0 / decimate=0 / interlaced=0 / bluray_compat=0 / constrained_intra=0 / bframes=3 / b_pyramid=2 / b_adapt=2 / b_bias=0 / direct=3 / weightb=1 / open_gop=0 / weightp=2 / keyint=250 / keyint_min=2 / scenecut=40 / intra_refresh=0 / rc_lookahead=60 / rc=2pass / mbtree=1 / bitrate=5141 / ratetol=1.0 / qcomp=0.60 / qpmin=10 / qpmax=51 / qpstep=4 / cplxblur=20.0 / qblur=0.5 / vbv_maxrate=38000 / vbv_bufsize=38000 / nal_hrd=none / ip_ratio=1.40 / aq=1:1.00
Язык : English

Аудио #1
Идентификатор : 2
Формат : MPEG Audio
Версия формата : Version 1
Профиль формата : Layer 3
Режим : Joint stereo
Расширение режима : MS Stereo
Режим смешивания : Header stripping
Идентификатор кодека : A_MPEG/L3
Идентификатор кодека/Подсказка : MP3
Продолжительность : 1 ч. 26 м.
Вид битрейта : Постоянный
Битрейт : 192 Кбит/сек
Каналы : 2 канала
Частота : 48,0 КГц
Метод сжатия : С потерями
Размер потока : 118 Мбайт (3%)
Библиотека кодирования : LAME3.96
Язык : Russian

Аудио #2
Идентификатор : 3
Формат : DTS
Формат/Информация : Digital Theater Systems
Режим смешивания : Header stripping
Идентификатор кодека : A_DTS
Продолжительность : 1 ч. 26 м.
Вид битрейта : Постоянный
Битрейт : 1510 Кбит/сек
Каналы : 6 каналов
Расположение каналов : Front: L C R, Side: L R, LFE
Частота : 48,0 КГц
Битовая глубина : 16 бит
Метод сжатия : С потерями
Размер потока : 930 Мбайт (22%)
Язык : English






pb.wtf



Скачать Сладкая судьба через торрент http://lostpic.net/images/e64c7c41421612e3e7e909a24b44cc3b.jpg Скачать фильм Сладкая судьба через торрент бесплантно в хорошем качестве Описание: Фильм рассказывает о застенчивой, немой русской девушки. Ее сестра Анна уезжает в Канаду с яркими надеждами заработать деньги для ... 5 10 2
Info! Золотая раздача, скачанное не засчитывается.
Торрент: Зарегистрирован [2011-09-07 13:09] · скачан: 2 раз
Статус: √ проверено
Размер: 4.11 GB
Как cкачать? Как скачать Сладкая судьба через торрент | qTorrent

% Раздел Тема Автор DL S | L
Фильмы 2009 [ 1.36 GB ] Сладкая судьба / Sweet Karma [2009 HDRip] MrKuzj Скачать
1 | 0


Последний раз редактировалось: =GAS= (2011-09-07 15:16), всего редактировалось 1 раз


>> Регистрируемся здесь <<






Отзывы и комментарии о схеме читаем и пишем здесь: ---> Отзывы и комментарии о схеме

Новые благодарочки в телеграм довольных пользователей:
скриншот   скриншот   скриншот   скриншот   скриншот

07-09-2011 14:50 Сладкая судьба Скачать торрент  

аудио кодек МР3pb.wtf



07-09-2011 15:20 Сладкая судьба Скачать торрент  

220v0lt писал(а):

аудио кодек МР3

Исправил, спасибо.pb.wtf



    Дорогой пользователь! Огромная просьба, поблагодарите релизера, оцените раздачу и оставьте свои комментарий, если Вы скачали Сладкая судьба через торрент бесплатно! Внесите свою лепту в развитие PiratBit!
    Комментировать посты могут только пользователи прошедшие не сложную регистрацию
    Показать сообщения:    

    Сладкая судьба через торрент
    Скачать бесплатно Сладкая судьба
    Сладкая судьба скачать торрент
    Сладкая судьба смотреть онлайн
    Cкачать фильм Сладкая судьба бесплатно
    Сладкая судьба скачать торрент в хорошем качестве
    Сладкая судьба смотреть онлайн бесплатно в хорошем качестве


    Вы не можете начинать темы
    Вы не можете отвечать на сообщения
    Вы не можете редактировать свои сообщения
    Вы не можете удалять свои сообщения
    Вы не можете голосовать в опросах
    Вы не можете прикреплять файлы к сообщениям
    Вы можете скачивать файлы