1 сезон

1 сезон

iTunes

1

КиноПоиск HD

Кинопоиск HD

iTunes

13

1 сезон

RePack

30

Ultimate

ВАЖНО

ИГРА 18+

pack

RePack

MK11
pack

Легкие деньги

RePack

jed

RePack

fifa19

RePack

RDR2

RePack

NEED FOR SPEED™ PAYBACK

4 сезон

9 сезон

Бесстыжие 9 сезон

Все сериалы

все сериалы на PB.wtf

RePack

FAR CRY 5
  
Magnet ссылка

Модная мамочка / Raising Helen (Гэрри Маршалл) [2004 г., драма, мелодрама, комедия, HDRip] pb.wtf

Модная мамочка через торрент pb.wtf

Размер: 4.37 GB | Добавлен: 9 лет 7 мес. назад | Торрент скачан:24 раза
Скачать  

08-09-2011 20:15 Модная мамочка Скачать торрент  

Модная мамочка / Raising HelenГод выпуска: 2004
Страна: США
Жанр: драма, мелодрама, комедия
Продолжительность: 01:54:00

Перевод: Профессиональный (многоголосый, закадровый)
Язык субтитров: Русские
Вид субтитров: Вшитые, отключаемые

Режиссер: Гэрри Маршалл
Продюссер: Ашок Амритрадж, Дэвид Хоберман, Марио Искович
Сценарий: Патрик Дж. Клифтон, Бет Ригацио, Джек Эмиел

Дата мировой премьеры: 1 мая 2004
Дата российской премьеры: 17 июня 2004, «Каскад»

PG-13
-Детям до 13 лет просмотр не желателен
Мировой рейтинг IMDB 5.70 (12 100)


В ролях:
Кейт Хадсон, Джон Корбетт, Джоан Кьюсак, Хайден Панеттьери, Спенсер Бреслин, Эбигейл Бреслин, Хелен Миррен, Сакина Джэффри, Кевин Килнер, Фелисити Хаффм

Описание: После гибели сестры на Хелен ложится забота о трех племянниках: тинэйджере Одри, десятилетнем Генри и совсем маленькой Саре. Быть помощницей директора модельного агентства нелегко, а заботиться о «свалившихся с неба» родственниках еще труднее. Осложняет все дело внезапный бурный роман с местным пастором Дэном…

Качество: HDRip
Формат: MKV
Видео кодек: MPEG-4 AVC/H.264
Аудио кодек: AC3
Видео: ~4212 kb/s, 1280x718,
Аудио:
#1: Русский, 48 kHz, 384 kb/s, 16 bit, 6 каналов, AC-3, (L, C, R, l, r) + LFE |Дублированный|,
#2: Русский, 48 kHz, 448 kb/s, 16 bit, 6 каналов, AC-3, (L, C, R, l, r) + LFE |Двухголосый, Tycoon|,
#3: Английский 48 kHz, 448 kb/s, 16 bit, 6 каналов, AC-3, (L, C, R, l, r) + LFE |Оригинал|.
Субтитры: Русские UTF-8, Английские UTF-8
Общее
Уникальный идентификатор : 219489373353553233551314544651490927547 (0xA5201D9C00505A99BB3602DC82F9A3BB)
Полное имя : K:\Фильмы 2\Модная мамочка.mkv
Формат : Matroska
Версия формата : Version 2
Размер файла : 4,37 Гбайт
Продолжительность : 1 ч. 53 м.
Общий поток : 5493 Кбит/сек
Дата кодирования : UTC 2011-09-05 13:03:44
Программа кодирования : mkvmerge v4.8.0 ('I Got The...') built on May 24 2011 03:12:58
Библиотека кодирования : libebml v1.2.0 + libmatroska v1.1.0

Видео
Идентификатор : 1
Формат : AVC
Формат/Информация : Advanced Video Codec
Профиль формата : High@L4.1
Параметр CABAC формата : Да
Параметр ReFrames формата : 9 кадров
Идентификатор кодека : V_MPEG4/ISO/AVC
Продолжительность : 1 ч. 53 м.
Битрейт : 4212 Кбит/сек
Ширина : 1280 пикс.
Высота : 718 пикс.
Соотношение сторон : 16:9
Частота кадров : 25,000 кадр/сек
Цветовое пространство : YUV
Подвыборка цветности : 4:2:0
Битовая глубина : 8 бит
Тип развёртки : Прогрессивная
Бит/(Пиксели*Кадры) : 0.183
Размер потока : 3,27 Гбайт (75%)
Библиотека кодирования : x264 core 116 r2074 2641b9e
Настройки программы : cabac=1 / ref=9 / deblock=1:-3:-3 / analyse=0x3:0x113 / me=umh / subme=10 / psy=1 / psy_rd=1.00:0.00 / mixed_ref=1 / me_range=32 / chroma_me=1 / trellis=2 / 8x8dct=1 / cqm=0 / deadzone=21,11 / fast_pskip=1 / chroma_qp_offset=-2 / threads=3 / sliced_threads=0 / nr=0 / decimate=1 / interlaced=0 / bluray_compat=0 / constrained_intra=0 / bframes=10 / b_pyramid=2 / b_adapt=2 / b_bias=0 / direct=1 / weightb=1 / open_gop=0 / weightp=2 / keyint=250 / keyint_min=25 / scenecut=40 / intra_refresh=0 / rc_lookahead=40 / rc=2pass / mbtree=1 / bitrate=4212 / ratetol=1.0 / qcomp=0.60 / qpmin=10 / qpmax=51 / qpstep=4 / cplxblur=20.0 / qblur=0.5 / ip_ratio=1.40 / aq=1:1.00
Язык : English

Аудио #1
Идентификатор : 2
Формат : AC-3
Формат/Информация : Audio Coding 3
Расширение режима : CM (complete main)
Идентификатор кодека : A_AC3
Продолжительность : 1 ч. 53 м.
Вид битрейта : Постоянный
Битрейт : 384 Кбит/сек
Каналы : 6 каналов
Расположение каналов : Front: L C R, Side: L R, LFE
Частота : 48,0 КГц
Битовая глубина : 16 бит
Метод сжатия : С потерями
Размер потока : 313 Мбайт (7%)
Заголовок : Dub
Язык : Russian

Аудио #2
Идентификатор : 3
Формат : AC-3
Формат/Информация : Audio Coding 3
Расширение режима : CM (complete main)
Идентификатор кодека : A_AC3
Продолжительность : 1 ч. 53 м.
Вид битрейта : Постоянный
Битрейт : 448 Кбит/сек
Каналы : 6 каналов
Расположение каналов : Front: L C R, Side: L R, LFE
Частота : 48,0 КГц
Битовая глубина : 16 бит
Метод сжатия : С потерями
Размер потока : 365 Мбайт (8%)
Заголовок : DVO | Tycoon
Язык : Russian

Аудио #3
Идентификатор : 4
Формат : AC-3
Формат/Информация : Audio Coding 3
Расширение режима : CM (complete main)
Идентификатор кодека : A_AC3
Продолжительность : 1 ч. 53 м.
Вид битрейта : Постоянный
Битрейт : 448 Кбит/сек
Каналы : 6 каналов
Расположение каналов : Front: L C R, Side: L R, LFE
Частота : 48,0 КГц
Битовая глубина : 16 бит
Метод сжатия : С потерями
Размер потока : 365 Мбайт (8%)
Заголовок : Original
Язык : English

Текст #1
Идентификатор : 5
Формат : UTF-8
Идентификатор кодека : S_TEXT/UTF8
Идентификатор кодека/Информация : UTF-8 Plain Text
Язык : Russian

Текст #2
Идентификатор : 6
Формат : UTF-8
Идентификатор кодека : S_TEXT/UTF8
Идентификатор кодека/Информация : UTF-8 Plain Text
Язык : Russian

Текст #3
Идентификатор : 7
Формат : UTF-8
Идентификатор кодека : S_TEXT/UTF8
Идентификатор кодека/Информация : UTF-8 Plain Text
Язык : English







pb.wtf



Скачать Модная мамочка через торрент http://lostpic.net/images/3d366d3f13fdd951edd1c2377dda8b1b.jpg Скачать фильм Модная мамочка через торрент бесплантно в хорошем качестве Описание: После гибели сестры на Хелен ложится забота о трех племянниках: тинэйджере Одри, десятилетнем Генри и совсем маленькой Саре. Быть ... 4.7 10 3
Info! Золотая раздача, скачанное не засчитывается.
Торрент: Зарегистрирован [2011-09-08 20:15] · скачан: 24 раз
Статус: √ проверено
Размер: 4.37 GB
Как cкачать? Как скачать Модная мамочка через торрент | UTorrent

% Раздел Тема Автор DL S | L
Фильмы (DVD фильмы) [ 6.41 GB ] Модная мамочка / Raising Helen [2004 DVD9] NarutoSasuke Скачать
1 | 0

28-11-2019 20:33  

Отключить всю рекламу на сайте

    Дорогой пользователь! Огромная просьба, поблагодарите релизера, оцените раздачу и оставьте свои комментарий, если Вы скачали Модная мамочка через торрент бесплатно! Внесите свою лепту в развитие PiratBit!
    Комментировать посты могут только пользователи прошедшие не сложную регистрацию
    Показать сообщения:    

    Модная мамочка через торрент
    Скачать бесплатно Модная мамочка
    Модная мамочка скачать торрент
    Модная мамочка смотреть онлайн
    Cкачать фильм Модная мамочка бесплатно
    Модная мамочка скачать торрент в хорошем качестве
    Модная мамочка смотреть онлайн бесплатно в хорошем качестве


    Вы не можете начинать темы
    Вы не можете отвечать на сообщения
    Вы не можете редактировать свои сообщения
    Вы не можете удалять свои сообщения
    Вы не можете голосовать в опросах
    Вы не можете прикреплять файлы к сообщениям
    Вы можете скачивать файлы