Ссылка на приватное зеркало нашего сайта всего за 1$. Внимание количество ограничено!!!

2 сезон

iTunes

1 сезон

1

2 сезон

2 сезон

iTunes

1 сезон

RePack

30

Новинка

ВАЖНО

ИГРА 18+

pack

RePack

MK11
pack

Забери бонус

RePack

jed

!!Акция!!

Alien_Rage

RePack

fifa19

RePack

Assassins Creed: Odyssey

RePack

NEED FOR SPEED™ PAYBACK

4 сезон

9 сезон

Бесстыжие 9 сезон

Все сериалы

все сериалы на PB.wtf

RePack

FAR CRY 5
  

(Rock) The Beatles - Artifacts [5CD Box Set] - 1958-1970, FLAC (tracks), lossless pb.wtf

через торрент pb.wtf

Размер: 1.83 GB | Добавлен: 9 лет 2 мес. назад | Торрент скачан:1 раз
Скачать  

09-09-2011 22:24 Скачать торрент  

The Beatles - Artifacts (1958-1970) Страна: Великобритания

Жанр: Rock

Год выпуска: 1958-1970

Формат: FLAC (tracks)

Битрейт аудио: lossless

Продолжительность: 06:05:11
Трек лист:
01. That'll Be The Day (As The Quarry Men) (1:03)
02. The One After 909 - Live Hamburg (2:25)
03. I'll Follow The Sun - Live Hamburg (1:45)
04. Matchbox - Live Hamburg (1:00)
05. Thinking Of Linking - Live Hamburg (2:22)
06. The World Is Waiting For The Sunrise - Live (2:45)
07. Catswalk - Caver Club Rehearsals (1:26)
08. The One After 909 - Cavern Club Rehearsals (3:20)
09. I Saw Her Standing There - Cavern Club Rehear (2:57)
10. Like Dreamers Do - Decca Demo (2:31)
11. Hello Little Girl - Decca Demo (1:38)
12. Some Other Guy - Live Cavern Club (2:02)
13. How Do You Do It? (1:58)
14. A Taste Of Honey - Granada Tv (0:46)
15. I Saw Her Standing There - Take 2 (3:07)
16. There's A Place - Takes 3 & 4 (2:08)
17. Misery - Takes 1 thru 6 (6:49)
18. From Me To You - Takes 1 & 2 (3:32)
19. Please Please Me - BBC Saturdays Club (2:30)
20. Long Tall Sally - BBC Saturdays Club (1:44)
21. Money - BBC Pop Goes The Beatles (2:39)
22. I'll Be On My Way - BBC Side By Side (1:55)
23. I'm In Love - Lennon Demo (1:31)
24. Bad To Me - Lennon Demo (1:30)
25. Hold Me Tight - Takes 25 & 26 (3:04)
26. Don't Bother Me - Take 10 (2:52)
27. Roll Over Beethoven/She Loves You - Live (4:28)
28. Twist And Shout - Live Royal Variety Show (3:04)
29. On Moonlight Bay - Morecambe And Wise Show (1:10)

Продолжительность – 01:10:01
Exact Audio Copy V0.99 prebeta 5 from 4. May 2009

EAC extraction logfile from 3. August 2010, 17:32

The Beatles / Artifacts: The Early Years - Disc 1

Used drive : ASUS DRW-1814BLT Adapter: 1 ID: 0

Read mode : Secure
Utilize accurate stream : Yes
Defeat audio cache : Yes
Make use of C2 pointers : No

Read offset correction : 6
Overread into Lead-In and Lead-Out : Yes
Fill up missing offset samples with silence : Yes
Delete leading and trailing silent blocks : No
Null samples used in CRC calculations : Yes
Used interface : Native Win32 interface for Win NT & 2000

Used output format : User Defined Encoder
Selected bitrate : 768 kBit/s
Quality : High
Add ID3 tag : No
Command line compressor : C:\Program Files\Exact Audio Copy\FLAC\FLAC.EXE
Additional command line options : -8 -V %s

TOC of the extracted CD

Track | Start | Length | Start sector | End sector
---------------------------------------------------------
1 | 0:00.33 | 1:03.15 | 33 | 4772
2 | 1:03.48 | 2:24.52 | 4773 | 15624
3 | 3:28.25 | 1:45.13 | 15625 | 23512
4 | 5:13.38 | 1:00.00 | 23513 | 28012
5 | 6:13.38 | 2:22.12 | 28013 | 38674
6 | 8:35.50 | 2:44.63 | 38675 | 51037
7 | 11:20.38 | 1:26.17 | 51038 | 57504
8 | 12:46.55 | 3:20.33 | 57505 | 72537
9 | 16:07.13 | 2:57.25 | 72538 | 85837
10 | 19:04.38 | 2:30.60 | 85838 | 97147
11 | 21:35.23 | 1:38.15 | 97148 | 104512
12 | 23:13.38 | 2:01.60 | 104513 | 113647
13 | 25:15.23 | 1:58.15 | 113648 | 122512
14 | 27:13.38 | 0:46.25 | 122513 | 125987
15 | 27:59.63 | 3:07.05 | 125988 | 140017
16 | 31:06.68 | 2:07.57 | 140018 | 149599
17 | 33:14.50 | 6:48.43 | 149600 | 180242
18 | 40:03.18 | 3:31.62 | 180243 | 196129
19 | 43:35.05 | 2:29.58 | 196130 | 207362
20 | 46:04.63 | 1:44.12 | 207363 | 215174
21 | 47:49.00 | 2:39.13 | 215175 | 227112
22 | 50:28.13 | 1:54.45 | 227113 | 235707
23 | 52:22.58 | 1:31.30 | 235708 | 242562
24 | 53:54.13 | 1:29.50 | 242563 | 249287
25 | 55:23.63 | 3:04.05 | 249288 | 263092
26 | 58:27.68 | 2:51.70 | 263093 | 275987
27 | 61:19.63 | 4:27.50 | 275988 | 296062
28 | 65:47.38 | 3:04.17 | 296063 | 309879
29 | 68:51.55 | 1:09.58 | 309880 | 315112

Range status and errors

Selected range

Filename O:\Music\Beatles\Beatles - Artifacts (1993)\cd1\The Beatles - Artifacts (1993) - The Early Years (cd1).wav

Peak level 100.0 %
Range quality 99.9 %
Test CRC 7005E323
Copy CRC 7005E323
Copy OK

No errors occurred

AccurateRip summary

Track 1 accurately ripped (confidence 3) [509ABDB9]
Track 2 accurately ripped (confidence 3) [31D89D18]
Track 3 accurately ripped (confidence 3) [6F881215]
Track 4 accurately ripped (confidence 3) [F173D96E]
Track 5 accurately ripped (confidence 3) [39640648]
Track 6 accurately ripped (confidence 3) [88808F6A]
Track 7 accurately ripped (confidence 3) [D4B43DD9]
Track 8 accurately ripped (confidence 3) [85FF7FB7]
Track 9 accurately ripped (confidence 3) [2717BAFF]
Track 10 accurately ripped (confidence 3) [7F65BB9C]
Track 11 accurately ripped (confidence 3) [D543F46A]
Track 12 accurately ripped (confidence 3) [FE83CCD2]
Track 13 accurately ripped (confidence 3) [85E3C41D]
Track 14 accurately ripped (confidence 3) [47997508]
Track 15 accurately ripped (confidence 3) [8C01A327]
Track 16 accurately ripped (confidence 3) [4130F102]
Track 17 accurately ripped (confidence 3) [C7CEDDBB]
Track 18 accurately ripped (confidence 3) [5782B0D2]
Track 19 accurately ripped (confidence 3) [22D061DC]
Track 20 accurately ripped (confidence 3) [73828FA3]
Track 21 accurately ripped (confidence 3) [D2870DE8]
Track 22 accurately ripped (confidence 3) [9EE3E502]
Track 23 accurately ripped (confidence 3) [72DCBB21]
Track 24 accurately ripped (confidence 3) [59B13DCC]
Track 25 accurately ripped (confidence 3) [ADA88508]
Track 26 accurately ripped (confidence 3) [2068636F]
Track 27 accurately ripped (confidence 3) [14B06D38]
Track 28 accurately ripped (confidence 3) [85E17A1D]
Track 29 accurately ripped (confidence 3) [821764B3]

All tracks accurately ripped

End of status report
-----------------------

DON'T MODIFY THIS FILE

-----------------------

PERFORMER: auCDtect Task Manager, ver. 1.5.1RC6 build 1.5.1.7
Copyright (c) 2008-2010 y-soft. All rights reserved
http://y-soft.org

ANALYZER: auCDtect: CD records authenticity detector, version 0.8.2
Copyright (c) 2004 Oleg Berngardt. All rights reserved.
Copyright (c) 2004 Alexander Djourik. All rights reserved.

FILE: The Beatles - Artifacts (1993) - The Early Years (cd1).flac
Size: 367638294 Hash: F8946894CCE97EC1EA61D172D7017F77 Accuracy: -m8
Conclusion: CDDA 100%
Signature: 9B913C447A70D8615EC3AA7DD5BAB872402C31B4

Трек лист:
01. If I Fell - Demo (4:01)
02. One And One Is Two - Demo (1:56)
03. Can't Buy Me Love - Takes 1 & 3 (3:03)
04. All My Loving - Ed Sullivan Show (2:37)
05. I Want To Hold Your Hand - Ed Sullivan Show (3:08)
06. Please Please Me - Ed Sullivan Show (2:05)
07. A Hard Days Night - Takes 6 & 7 (4:28)
08. From Us To You - BBC Saturday Club (0:33)
09. You Can't Do That - BBC Saturday Club (2:38)
10. Shout! - from 'Around The Beatles' TV Special (2:05)
11. Leave My Kitten Alone - Take 5 (2:54)
12. I'm A Loser - Take 1 (2:32)
13. She's A Woman - Take 7 (6:32)
14. I Feel Fine - Take 6 (2:52)
15. If You've Got Troubles - Take 1 (2:53)
16. You're Gonna Lose That Girl - Alternate Mix (2:20)
17. That Means A Lot - Take 2 (2:29)
18. Help - Take 5 (2:27)
19. Yesterday - Ed Sullivan Show (2:05)
20. I'm Down - Live At The Hollywood Bowl (2:18)
21. Norwegian Wood (This Bird Has Flown) - Take 1 (2:02)
22. Day Tripper - Take 1 (2:11)
23. We Can Work It Out - Demo (0:45)
24. I'm Looking Through You - Take 1 (3:12)
25. Twelve Bar Original (6:42)
26. Girl - Backing Tracks (2:17)

Продолжительность – 01:13:05
Exact Audio Copy V0.99 prebeta 5 from 4. May 2009

EAC extraction logfile from 3. August 2010, 17:51

The Beatles / Artifacts - Beatlemania

Used drive : ASUS DRW-1814BLT Adapter: 1 ID: 0

Read mode : Secure
Utilize accurate stream : Yes
Defeat audio cache : Yes
Make use of C2 pointers : No

Read offset correction : 6
Overread into Lead-In and Lead-Out : Yes
Fill up missing offset samples with silence : Yes
Delete leading and trailing silent blocks : No
Null samples used in CRC calculations : Yes
Used interface : Native Win32 interface for Win NT & 2000

Used output format : User Defined Encoder
Selected bitrate : 768 kBit/s
Quality : High
Add ID3 tag : No
Command line compressor : C:\Program Files\Exact Audio Copy\FLAC\FLAC.EXE
Additional command line options : -8 -V %s

TOC of the extracted CD

Track | Start | Length | Start sector | End sector
---------------------------------------------------------
1 | 0:00.33 | 4:01.00 | 33 | 18107
2 | 4:01.33 | 1:56.00 | 18108 | 26807
3 | 5:57.33 | 3:03.00 | 26808 | 40532
4 | 9:00.33 | 2:37.00 | 40533 | 52307
5 | 11:37.33 | 3:08.37 | 52308 | 66444
6 | 14:45.70 | 2:05.13 | 66445 | 75832
7 | 16:51.08 | 4:28.37 | 75833 | 95969
8 | 21:19.45 | 0:32.38 | 95970 | 98407
9 | 21:52.08 | 2:38.00 | 98408 | 110257
10 | 24:30.08 | 2:04.62 | 110258 | 119619
11 | 26:34.70 | 2:53.50 | 119620 | 132644
12 | 29:28.45 | 2:31.38 | 132645 | 144007
13 | 32:00.08 | 6:32.12 | 144008 | 173419
14 | 38:32.20 | 2:51.63 | 173420 | 186307
15 | 41:24.08 | 2:53.12 | 186308 | 199294
16 | 44:17.20 | 2:19.63 | 199295 | 209782
17 | 46:37.08 | 2:29.00 | 209783 | 220957
18 | 49:06.08 | 2:27.00 | 220958 | 231982
19 | 51:33.08 | 2:05.12 | 231983 | 241369
20 | 53:38.20 | 2:18.00 | 241370 | 251719
21 | 55:56.20 | 2:02.00 | 251720 | 260869
22 | 57:58.20 | 2:11.25 | 260870 | 270719
23 | 60:09.45 | 0:45.13 | 270720 | 274107
24 | 60:54.58 | 3:11.50 | 274108 | 288482
25 | 64:06.33 | 6:41.50 | 288483 | 318607
26 | 70:48.08 | 2:17.25 | 318608 | 328907

Range status and errors

Selected range

Filename O:\Music\Beatles\Beatles - Artifacts (1993)\cd2\The Beatles - Artifacts (1993) - Beatlemania (cd2).wav

Peak level 100.0 %
Range quality 100.0 %
Test CRC BE32310A
Copy CRC BE32310A
Copy OK

No errors occurred

AccurateRip summary

Track 1 accurately ripped (confidence 2) [4A4C61E5]
Track 2 accurately ripped (confidence 2) [6FCF65FA]
Track 3 accurately ripped (confidence 2) [320D2A1E]
Track 4 accurately ripped (confidence 2) [F05ACE13]
Track 5 accurately ripped (confidence 2) [D21B13E5]
Track 6 accurately ripped (confidence 2) [2C257234]
Track 7 accurately ripped (confidence 2) [D1389649]
Track 8 accurately ripped (confidence 2) [FD804B66]
Track 9 accurately ripped (confidence 2) [4252DC37]
Track 10 accurately ripped (confidence 2) [A942C9E6]
Track 11 accurately ripped (confidence 2) [67A229A4]
Track 12 accurately ripped (confidence 2) [0F9E4208]
Track 13 accurately ripped (confidence 2) [15EDB0A1]
Track 14 accurately ripped (confidence 2) [C581ED1C]
Track 15 accurately ripped (confidence 2) [689316DA]
Track 16 accurately ripped (confidence 2) [F3619BBA]
Track 17 accurately ripped (confidence 2) [50659B52]
Track 18 accurately ripped (confidence 2) [AB897BD4]
Track 19 not present in database
Track 20 not present in database
Track 21 not present in database
Track 22 not present in database
Track 23 not present in database
Track 24 not present in database
Track 25 not present in database
Track 26 accurately ripped (confidence 2) [207809A1]

19 track(s) accurately ripped
7 track(s) not present in the AccurateRip database

Some tracks could not be verified as accurate

End of status report
-----------------------

DON'T MODIFY THIS FILE

-----------------------

PERFORMER: auCDtect Task Manager, ver. 1.5.1RC6 build 1.5.1.7
Copyright (c) 2008-2010 y-soft. All rights reserved
http://y-soft.org

ANALYZER: auCDtect: CD records authenticity detector, version 0.8.2
Copyright (c) 2004 Oleg Berngardt. All rights reserved.
Copyright (c) 2004 Alexander Djourik. All rights reserved.

FILE: The Beatles - Artifacts (1993) - Beatlemania (cd2).flac
Size: 400465970 Hash: F9528F44FE7D13C666A9DB97C078C066 Accuracy: -m8
Conclusion: CDDA 100%
Signature: 368F9272DC7A003678A6AA7C7048005DA651034A

Трек лист:
01. He Said He Said/She Said She Said - Demo (3:02)
02. Tomorrow Never Knows - Alternate Mix (2:56)
03. Paperback Writer - Takes 1 & 2 (4:04)
04. Nowhere Man - Live Candlestick Park 8/29/66 (2:31)
05. Paperback Writer - Live Candlestick Park (2:41)
06. Strawberry Fields Forever - Demos,Takes 1&25 (12:35)
07. Penny Lane - Brass Overdub (2:34)
08. A Day In The Life - Take 5 (4:23)
09. Good Morning Good Morning - Demo (1:03)
10. It's All To Much - Take 4 (8:35)
11. All You Need Is Love - 'Our World' broadcast (7:07)
12. Your Mother Should Know - Alternate Mono Mix (2:29)
13. I Am The Walrus - Take 7 monitor mix (1:52)
14. Fool On The Hill - Demo (2:50)
15. Aerial Tour Instrumental - Mono Mix (2:06)
16. Jessie's Dream - film music (0:44)
17. Hello Hello (Hello Goodbye) - Take 1 (5:09)
18. Blue Jay Way - Overdub Session (3:43)
19. Cry Baby Cry - Demo (5:56)
20. Daddy's Little Sunshine Boy - Home Tape (0:31)

Продолжительность – 01:16:52
Exact Audio Copy V0.99 prebeta 5 from 4. May 2009

EAC extraction logfile from 3. August 2010, 18:10

The Beatles / Artifacts - The Psychedelic Years

Used drive : ASUS DRW-1814BLT Adapter: 1 ID: 0

Read mode : Secure
Utilize accurate stream : Yes
Defeat audio cache : Yes
Make use of C2 pointers : No

Read offset correction : 6
Overread into Lead-In and Lead-Out : Yes
Fill up missing offset samples with silence : Yes
Delete leading and trailing silent blocks : No
Null samples used in CRC calculations : Yes
Used interface : Native Win32 interface for Win NT & 2000

Used output format : User Defined Encoder
Selected bitrate : 768 kBit/s
Quality : High
Add ID3 tag : No
Command line compressor : C:\Program Files\Exact Audio Copy\FLAC\FLAC.EXE
Additional command line options : -8 -V %s

TOC of the extracted CD

Track | Start | Length | Start sector | End sector
---------------------------------------------------------
1 | 0:00.33 | 3:02.12 | 33 | 13694
2 | 3:02.45 | 2:56.00 | 13695 | 26894
3 | 5:58.45 | 4:03.63 | 26895 | 45182
4 | 10:02.33 | 2:31.12 | 45183 | 56519
5 | 12:33.45 | 2:41.13 | 56520 | 68607
6 | 15:14.58 | 12:35.12 | 68608 | 125244
7 | 27:49.70 | 2:33.38 | 125245 | 136757
8 | 30:23.33 | 4:23.25 | 136758 | 156507
9 | 34:46.58 | 1:03.12 | 156508 | 161244
10 | 35:49.70 | 8:35.13 | 161245 | 199882
11 | 44:25.08 | 7:07.25 | 199883 | 231932
12 | 51:32.33 | 2:29.37 | 231933 | 243144
13 | 54:01.70 | 1:51.38 | 243145 | 251507
14 | 55:53.33 | 2:50.00 | 251508 | 264257
15 | 58:43.33 | 2:06.12 | 264258 | 273719
16 | 60:49.45 | 0:44.25 | 273720 | 277044
17 | 61:33.70 | 5:08.38 | 277045 | 300182
18 | 66:42.33 | 3:43.12 | 300183 | 316919
19 | 70:25.45 | 5:55.38 | 316920 | 343582
20 | 76:21.08 | 0:31.25 | 343583 | 345932

Range status and errors

Selected range

Filename O:\Music\Beatles\Beatles - Artifacts (1993)\cd3\The Beatles - Artifacts (1993) - The Psychedelic Years (cd3).wav

Peak level 100.0 %
Range quality 100.0 %
Test CRC ADF4A09F
Copy CRC ADF4A09F
Copy OK

No errors occurred

AccurateRip summary

Track 1 accurately ripped (confidence 2) [24DE2534]
Track 2 accurately ripped (confidence 2) [CF6D7696]
Track 3 accurately ripped (confidence 2) [4031B1D2]
Track 4 accurately ripped (confidence 2) [02113D1D]
Track 5 accurately ripped (confidence 2) [6DF887D7]
Track 6 accurately ripped (confidence 2) [87F68EE1]
Track 7 accurately ripped (confidence 2) [22C4115D]
Track 8 accurately ripped (confidence 2) [58A34285]
Track 9 accurately ripped (confidence 2) [FCBBCB48]
Track 10 accurately ripped (confidence 2) [B4063200]
Track 11 accurately ripped (confidence 2) [6514BB4E]
Track 12 accurately ripped (confidence 2) [BE923775]
Track 13 accurately ripped (confidence 2) [9F3B47BA]
Track 14 accurately ripped (confidence 2) [DEAC88BB]
Track 15 accurately ripped (confidence 2) [DF6608D5]
Track 16 accurately ripped (confidence 2) [2935BAF5]
Track 17 accurately ripped (confidence 2) [F6B1C811]
Track 18 accurately ripped (confidence 2) [851D155A]
Track 19 accurately ripped (confidence 2) [E1D70005]
Track 20 accurately ripped (confidence 2) [99A55CAF]

All tracks accurately ripped

End of status report
-----------------------

DON'T MODIFY THIS FILE

-----------------------

PERFORMER: auCDtect Task Manager, ver. 1.5.1RC6 build 1.5.1.7
Copyright (c) 2008-2010 y-soft. All rights reserved
http://y-soft.org

ANALYZER: auCDtect: CD records authenticity detector, version 0.8.2
Copyright (c) 2004 Oleg Berngardt. All rights reserved.
Copyright (c) 2004 Alexander Djourik. All rights reserved.

FILE: The Beatles - Artifacts (1993) - The Psychedelic Years (cd3).flac
Size: 365532486 Hash: DC5DD2432685515A4898F534E584DF97 Accuracy: -m8
Conclusion: CDDA 100%
Signature: C045876023F3C3E80F3B4D493B41FFE4B0398502

Трек лист:
01. The Inner Light - Take 5 (2:32)
02. Lady Madonna - Alternate Take (2:16)
03. She Can't Talk To Me (Hey Bulldog) - Demo (0:51)
04. Across The Universe - Mono Mix (3:47)
05. Instrumental/Blowin' In The Wind/HareKrishna (3:00)
06. Thank You, Guru Dev/Happy Birthday Mike Love (2:17)
07. The Happy Rishikesh Song - Demo (1:56)
08. Dear Prudence - Esher Demo (4:35)
09. Back In The USSR - Esher Demo (3:04)
10. Piggies - Esher Demo (2:06)
11. Jubilee - Esher Demo (2:37)
12. Child Of Nature - Esher Demo (2:36)
13. Sour Milk Sea - Esher Demo (3:33)
14. Circles - Esher Demo (2:17)
15. Ob-La-Di-Ob-La-Da - Take 5 (2:50)
16. Revolution - Alternate Mix (3:20)
17. Brian Epstein Blues (1:06)
18. While My Guitar Gently Weeps - Take 1 (3:18)
19. Hey Jude/Las Vegas Tune/St. Loius Blues (7:22)
20. Not Guilty - Mono Mix (4:11)
21. What's The New Mary Jane? - Take 4 (6:07)
22. Everyone Had A Hard Year - Demo (1:44)
23. Heather - w/Donavan (2:12)
24. Don't Let Me Down - Demo Version 2 (2:12)
25. Goodbye - Demo (2:25)

Продолжительность – 01:14:15
Exact Audio Copy V0.99 prebeta 5 from 4. May 2009

EAC extraction logfile from 3. August 2010, 18:38

The Beatles / Artifacts - Inner Revolution

Used drive : ASUS DRW-1814BLT Adapter: 1 ID: 0

Read mode : Secure
Utilize accurate stream : Yes
Defeat audio cache : Yes
Make use of C2 pointers : No

Read offset correction : 6
Overread into Lead-In and Lead-Out : Yes
Fill up missing offset samples with silence : Yes
Delete leading and trailing silent blocks : No
Null samples used in CRC calculations : Yes
Used interface : Native Win32 interface for Win NT & 2000

Used output format : User Defined Encoder
Selected bitrate : 768 kBit/s
Quality : High
Add ID3 tag : No
Command line compressor : C:\Program Files\Exact Audio Copy\FLAC\FLAC.EXE
Additional command line options : -8 -V %s

TOC of the extracted CD

Track | Start | Length | Start sector | End sector
---------------------------------------------------------
1 | 0:00.33 | 2:32.37 | 33 | 11469
2 | 2:32.70 | 2:16.00 | 11470 | 21669
3 | 4:48.70 | 0:50.38 | 21670 | 25457
4 | 5:39.33 | 3:47.00 | 25458 | 42482
5 | 9:26.33 | 3:00.12 | 42483 | 55994
6 | 12:26.45 | 2:17.13 | 55995 | 66282
7 | 14:43.58 | 1:56.00 | 66283 | 74982
8 | 16:39.58 | 4:34.62 | 74983 | 95594
9 | 21:14.45 | 3:03.38 | 95595 | 109357
10 | 24:18.08 | 2:06.00 | 109358 | 118807
11 | 26:24.08 | 2:37.00 | 118808 | 130582
12 | 29:01.08 | 2:36.12 | 130583 | 142294
13 | 31:37.20 | 3:33.25 | 142295 | 158294
14 | 35:10.45 | 2:16.63 | 158295 | 168557
15 | 37:27.33 | 2:49.62 | 168558 | 181294
16 | 40:17.20 | 3:19.63 | 181295 | 196282
17 | 43:37.08 | 1:06.25 | 196283 | 201257
18 | 44:43.33 | 3:18.37 | 201258 | 216144
19 | 48:01.70 | 7:22.25 | 216145 | 249319
20 | 55:24.20 | 4:11.13 | 249320 | 268157
21 | 59:35.33 | 6:06.62 | 268158 | 295669
22 | 65:42.20 | 1:43.38 | 295670 | 303432
23 | 67:25.58 | 2:12.25 | 303433 | 313357
24 | 69:38.08 | 2:12.37 | 313358 | 323294
25 | 71:50.45 | 2:24.63 | 323295 | 334157

Range status and errors

Selected range

Filename O:\Music\Beatles\Beatles - Artifacts (1993)\cd4\The Beatles - Artifacts (1993) - Inner Revolution (cd4).wav

Peak level 100.0 %
Range quality 100.0 %
Test CRC 070DBA45
Copy CRC 070DBA45
Copy OK

No errors occurred

AccurateRip summary

Track 1 accurately ripped (confidence 2) [01F46300]
Track 2 accurately ripped (confidence 2) [395A62F9]
Track 3 accurately ripped (confidence 2) [E14DB433]
Track 4 accurately ripped (confidence 2) [83CE6180]
Track 5 accurately ripped (confidence 2) [DA686445]
Track 6 accurately ripped (confidence 2) [40D14655]
Track 7 accurately ripped (confidence 2) [D9E86D34]
Track 8 accurately ripped (confidence 2) [41C38808]
Track 9 accurately ripped (confidence 2) [9D89FECE]
Track 10 accurately ripped (confidence 2) [A81424C2]
Track 11 accurately ripped (confidence 2) [1D877009]
Track 12 accurately ripped (confidence 2) [816793FF]
Track 13 accurately ripped (confidence 2) [E45693A6]
Track 14 accurately ripped (confidence 2) [D5DE81D7]
Track 15 accurately ripped (confidence 2) [B30A4266]
Track 16 accurately ripped (confidence 2) [53E5350A]
Track 17 accurately ripped (confidence 2) [BB0DE45D]
Track 18 accurately ripped (confidence 2) [3AE1686C]
Track 19 accurately ripped (confidence 2) [D97AA6D2]
Track 20 accurately ripped (confidence 2) [C7103FFC]
Track 21 accurately ripped (confidence 2) [BEDA066B]
Track 22 accurately ripped (confidence 2) [595FC130]
Track 23 accurately ripped (confidence 2) [21B725D7]
Track 24 accurately ripped (confidence 2) [DF9A3915]
Track 25 accurately ripped (confidence 2) [E2B1B4A5]

All tracks accurately ripped

End of status report
-----------------------

DON'T MODIFY THIS FILE

-----------------------

PERFORMER: auCDtect Task Manager, ver. 1.5.1RC6 build 1.5.1.7
Copyright (c) 2008-2010 y-soft. All rights reserved
http://y-soft.org

ANALYZER: auCDtect: CD records authenticity detector, version 0.8.2
Copyright (c) 2004 Oleg Berngardt. All rights reserved.
Copyright (c) 2004 Alexander Djourik. All rights reserved.

FILE: The Beatles - Artifacts (1993) - Inner Revolution (cd4).flac
Size: 350920922 Hash: A9EDA5E53979525F152ACA0E48BF0F7A Accuracy: -m8
Conclusion: CDDA 100%
Signature: 561AEC65F5C4A96A3A46EF5C934A9E08B7D60509

Трек лист:
01. Another Day/Studio Chat - Rehearsals (4:19)
02. Commentary Suicide - Rehearsals (1:27)
03. Act Naturally/Two Of Us - Rehearsals (2:33)
04. Piano Theme/Strawberry Fields Forever (1:35)
05. Madman A Comin' (Mean Mr. Mustard)-Rehearsals (0:53)
06. Watching Rainbows - Rehearsals (4:31)
07. Commonwealth - Rehearsals (4:01)
08. Get Back - Rehearsals (2:18)
09. Old Brown Shoe - Rehearsals (2:59)
10. For Yer Blue - Rehearsals (2:55)
11. I Lost My Little Girl - Rehearsals (4:07)
12. Maggie Mae/Fancy Me Chances - Rehearsals (1:34)
13. Dig It! - Rehearsals (8:27)
14. Get Back - Apple Rooftop Concert (3:43)
15. Dig A Pony - Apple Rooftop Concert (3:51)
16. Let It Be - Rehearsals (3:52)
17. Something - Demo (3:23)
18. Golden Slumbers/Carry That Weight - Take 13 (5:15)
19. Her Majesty - Take 3 (0:28)
20. Oh! Darling - Take 16 (2:14)
21. Come And Get It - Demo (2:31)
22. Because - Take 16 (2:21)
23. I Me Mine - Take 16 (1:40)

Продолжительность – 01:10:58
Exact Audio Copy V0.99 prebeta 5 from 4. May 2009

EAC extraction logfile from 4. August 2010, 1:18

The Beatles / Artifacts - Get Back To Abby Road

Used drive : MATSHITADVD-RAM UJ-811 Adapter: 0 ID: 0

Read mode : Secure
Utilize accurate stream : Yes
Defeat audio cache : Yes
Make use of C2 pointers : No

Read offset correction : 102
Overread into Lead-In and Lead-Out : No
Fill up missing offset samples with silence : Yes
Delete leading and trailing silent blocks : No
Null samples used in CRC calculations : Yes
Used interface : Installed external ASPI interface

Used output format : User Defined Encoder
Selected bitrate : 768 kBit/s
Quality : High
Add ID3 tag : No
Command line compressor : C:\Program Files\Exact Audio Copy\FLAC\FLAC.EXE
Additional command line options : -8 -V %s

TOC of the extracted CD

Track | Start | Length | Start sector | End sector
---------------------------------------------------------
1 | 0:00.33 | 4:19.00 | 33 | 19457
2 | 4:19.33 | 1:26.50 | 19458 | 25957
3 | 5:46.08 | 2:33.00 | 25958 | 37432
4 | 8:19.08 | 1:35.12 | 37433 | 44569
5 | 9:54.20 | 0:52.38 | 44570 | 48507
6 | 10:46.58 | 4:31.37 | 48508 | 68869
7 | 15:18.20 | 4:01.25 | 68870 | 86969
8 | 19:19.45 | 2:18.00 | 86970 | 97319
9 | 21:37.45 | 2:59.25 | 97320 | 110769
10 | 24:36.70 | 2:54.63 | 110770 | 123882
11 | 27:31.58 | 4:07.37 | 123883 | 142444
12 | 31:39.20 | 1:34.00 | 142445 | 149494
13 | 33:13.20 | 8:26.63 | 149495 | 187507
14 | 41:40.08 | 3:42.62 | 187508 | 204219
15 | 45:22.70 | 3:51.00 | 204220 | 221544
16 | 49:13.70 | 3:51.63 | 221545 | 238932
17 | 53:05.58 | 3:23.20 | 238933 | 254177
18 | 56:29.03 | 5:15.30 | 254178 | 277832
19 | 61:44.33 | 0:27.50 | 277833 | 279907
20 | 62:12.08 | 2:13.62 | 279908 | 289944
21 | 64:25.70 | 2:31.13 | 289945 | 301282
22 | 66:57.08 | 2:21.00 | 301283 | 311857
23 | 69:18.08 | 1:40.25 | 311858 | 319382

Range status and errors

Selected range

Filename C:\Test\The Beatles - Artifacts (1993) - Get Back To Abby Road (cd5).wav

Peak level 100.0 %
Range quality 100.0 %
Test CRC C11E2127
Copy CRC C11E2127
Copy OK

No errors occurred

AccurateRip summary

Track 1 accurately ripped (confidence 2) [97A6E2EC]
Track 2 accurately ripped (confidence 2) [60365F0F]
Track 3 accurately ripped (confidence 2) [E9C67EFC]
Track 4 accurately ripped (confidence 2) [F2E12C1D]
Track 5 accurately ripped (confidence 2) [66A57462]
Track 6 accurately ripped (confidence 2) [A1EDA60B]
Track 7 accurately ripped (confidence 2) [17C74954]
Track 8 accurately ripped (confidence 2) [457944E9]
Track 9 accurately ripped (confidence 2) [0CF2C1CB]
Track 10 accurately ripped (confidence 2) [2355A1AB]
Track 11 accurately ripped (confidence 2) [05B9973F]
Track 12 accurately ripped (confidence 2) [F2BBDC69]
Track 13 accurately ripped (confidence 2) [1E9FE2A9]
Track 14 accurately ripped (confidence 2) [C0CA1704]
Track 15 accurately ripped (confidence 2) [74D5F717]
Track 16 accurately ripped (confidence 2) [748DC01A]
Track 17 accurately ripped (confidence 2) [5F8B1FA6]
Track 18 accurately ripped (confidence 2) [A46873E5]
Track 19 accurately ripped (confidence 2) [BD474818]
Track 20 accurately ripped (confidence 2) [221CC177]
Track 21 accurately ripped (confidence 2) [A8EBCEF4]
Track 22 accurately ripped (confidence 2) [4BCD7043]
Track 23 accurately ripped (confidence 2) [49A444AE]

All tracks accurately ripped

End of status report
-----------------------

DON'T MODIFY THIS FILE

-----------------------

PERFORMER: auCDtect Task Manager, ver. 1.5.1RC6 build 1.5.1.7
Copyright (c) 2008-2010 y-soft. All rights reserved
http://y-soft.org

ANALYZER: auCDtect: CD records authenticity detector, version 0.8.2
Copyright (c) 2004 Oleg Berngardt. All rights reserved.
Copyright (c) 2004 Alexander Djourik. All rights reserved.

FILE: The Beatles - Artifacts (1993) - Get Back To Abby Road (cd5).flac
Size: 343579783 Hash: C2F3BA395EC282D559E7A1475FE843B1 Accuracy: -m8
Conclusion: CDDA 100%
Signature: 3B90EE6ACBB8817E43EEA635179389A320EE4FEB
pb.wtf



Скачать через торрент http://lostpic.net/images/87430456b0b924207178271349eba7cb.jpg Скачать фильм через торрент бесплантно в хорошем качестве Год выпуска: 1958-1970Формат: FLAC (tracks)Битрейт аудио: losslessПродолжительность: ... 5 10 2
Info! Золотая раздача, скачанное не засчитывается.
Торрент: Зарегистрирован [2011-09-09 22:24] · скачан: 1 раз
Статус: √ проверено
Размер: 1.83 GB
Как cкачать? Как скачать через торрент | qTorrent

% Раздел Тема Автор DL S | L
Classic Rock & Hard Rock (lossless) [ 2.68 GB ] EVANESCENCE Дискография - 1998-2007 FLAC lossless ser_1985 Скачать
1 | 0
Eurodance, Technopop, Disco (lossless) [ 1.86 GB ] Dr. Alban Студийные альбомы - 5CD [FLAC lossless] tauras Скачать
1 | 0
Action FPS (1st Person) [ 8.89 GB ] Star Wars: The Force Unleashed - Ultimate Sith Edition [Lossless Repack RU/EN] от Druid =Чувак= Скачать
1 | 0
Архив (Alternative, Punk, Independent) [ 1.74 GB ] Breaking Benjamin - Дискография - 2001-2009 FLAC lossless King_IS_Back Скачать
1 | 0
Гоночные симуляторы [ 3.18 GB ] Дальнобойщик​и 3: Золотое Издание [Lossless Repack RU] от R.G. Catalyst roman3310i Скачать
1 | 0
Архив (Многоканальная музыка и собственные оцифровки) [ 405 MB ] Black Sabbath -Heaven & hell - 1980 DTS lossless staryirocker Скачать
1 | 0
RTS (стратегии в реальном времени) [ 4.21 GB ] Command & Conquer 4: Tiberian Twilight [Lossless RePackRUEA] Alex_Zeyn Скачать
2 | 0

28-11-2019 20:33  

Отключить всю рекламу на сайте

10-09-2011 11:06 Скачать торрент  

спасибо, класс)))pb.wtf



10-09-2011 14:05 Скачать торрент  

Pir@tya2010 писал(а):

спасибо, класс)))

на здоровьеpb.wtf



17-02-2013 02:12 Скачать торрент  

=GAS= писал(а):

Pir@tya2010 писал(а):

спасибо, класс)))

на здоровье

pb.wtf



27-03-2013 03:07 Скачать торрент  

leha1508.aleksey писал(а):

=GAS= писал(а):

Pir@tya2010 писал(а):

спасибо, класс)))

на здоровье


ожевим раздачуууууууpb.wtf



    Дорогой пользователь! Огромная просьба, поблагодарите релизера, оцените раздачу и оставьте свои комментарий, если Вы скачали через торрент бесплатно! Внесите свою лепту в развитие PiratBit!
    Комментировать посты могут только пользователи прошедшие не сложную регистрацию
    Показать сообщения:    

    через торрент
    Скачать бесплатно
    скачать торрент
    смотреть онлайн
    Cкачать фильм бесплатно
    скачать торрент в хорошем качестве
    смотреть онлайн бесплатно в хорошем качестве


    Вы не можете начинать темы
    Вы не можете отвечать на сообщения
    Вы не можете редактировать свои сообщения
    Вы не можете удалять свои сообщения
    Вы не можете голосовать в опросах
    Вы не можете прикреплять файлы к сообщениям
    Вы можете скачивать файлы