1 сезон

1 сезон

iTunes

1

КиноПоиск HD

Кинопоиск HD

iTunes

13

1 сезон

RePack

30

Новинка

ВАЖНО

ИГРА 18+

pack

RePack

MK11
pack

Легкие деньги

RePack

jed

RePack

fifa19

RePack

RDR2

RePack

NEED FOR SPEED™ PAYBACK

4 сезон

9 сезон

Бесстыжие 9 сезон

Все сериалы

все сериалы на PB.wtf

RePack

FAR CRY 5
  
Magnet ссылка

Мелинда и Мелинда / Melinda and Melinda (Вуди Аллен) [2004 г., драма, комедия, DVDRip] pb.wtf

Мелинда и Мелинда через торрент pb.wtf

Размер: 1.36 GB | Добавлен: 9 лет 7 мес. назад | Торрент скачан:13 раз
Скачать  

10-09-2011 14:31 Мелинда и Мелинда Скачать торрент  

Мелинда и Мелинда / Melinda and MelindaГод выпуска: 2004
Страна: США
Жанр: драма, комедия
Продолжительность: 01:35:05
Перевод: Профессиональный (многоголосый, закадровый)

Режиссер: Вуди Аллен
Продюссер: Летти Аронсон, Чарльз Х. Джофф, Хелен Робин
Сценарий: Вуди Аллен

PG-13
-Детям до 13 лет просмотр не желателен
Мировой рейтинг IMDB 6.50 (16 417)


В ролях: Рада Митчел, Чиветел Эджиофор, Уилл Феррелл, Клоэ Севиньи, Джонни Ли Миллер, Брук Смит, Аманда Пит, Уоллас Шон

Описание:
За столиком ресторана друзья обсуждают, чего больше в жизни — комического или трагического. Автор успешных комедий убежден, что люди ищут повод для смеха, чтобы убежать от боли — его друг верит в силу трагедии. В качестве примера каждый развивает историю, основанную на анекдоте о незваном госте — молодой женщине Мелинде, чья жизнь пошла под откос.В драматической версии мы видим переживания Мелинды после тяжелого развода; комедийная версия событий развивается в спальном районе, где Мелинда вносит сумятицу во время соседской вечеринки своей попыткой самоубийства. Здесь фигурирует масса комических персонажей из художественной богемы, включая безработного актера, заигрывающего с Мелиндой, и его жену-режиссера, более всего озабоченную охмурением банкира для спонсирования нового проекта «Сонаты о кастрации».

Качество: DVDRip
Формат: AVI
Видео кодек: XviD
Аудио кодек: MP3
Видео: ~1785 Кбит/сек, 704х376, 25,000 кадр/сек
Аудио #1: MP3 2.0, 128 kb/s - русский
Аудио #2: MP3 2.0, 128 kb/s - английский
Общее
Полное имя : G:\Melinda.i.Melinda.2004.XviD.DVDRip.avi
Формат : AVI
Формат/Информация : Audio Video Interleave
Размер файла : 1,36 Гбайт
Продолжительность : 1 ч. 35 м.
Общий поток : 2055 Кбит/сек
Программа кодирования : VirtualDubMod 1.5.10.2 (build 2540/release)
Библиотека кодирования : VirtualDubMod build 2540/release

Видео
Идентификатор : 0
Формат : MPEG-4 Visual
Профиль формата : Advanced Simple@L5
Параметр BVOP формата : 1
Параметр QPel формата : Нет
Параметр GMC формата : Без точки перехода
Параметр матрицы формата : Default (H.263)
Идентификатор кодека : XVID
Идентификатор кодека/Подсказка : XviD
Продолжительность : 1 ч. 35 м.
Битрейт : 1785 Кбит/сек
Ширина : 704 пикс.
Высота : 376 пикс.
Соотношение сторон : 1,872
Частота кадров : 25,000 кадр/сек
Цветовое пространство : YUV
Подвыборка цветности : 4:2:0
Битовая глубина : 8 бит
Тип развёртки : Прогрессивная
Метод сжатия : С потерями
Бит/(Пиксели*Кадры) : 0.270
Размер потока : 1,19 Гбайт (87%)
Библиотека кодирования : XviD 1.2.0.dev47 (UTC 2006-11-01)

Аудио #1
Идентификатор : 1
Формат : MPEG Audio
Версия формата : Version 1
Профиль формата : Layer 3
Идентификатор кодека : 55
Идентификатор кодека/Подсказка : MP3
Продолжительность : 1 ч. 35 м.
Вид битрейта : Постоянный
Битрейт : 128 Кбит/сек
Каналы : 2 канала
Частота : 48,0 КГц
Метод сжатия : С потерями
Размер потока : 87,0 Мбайт (6%)
Выравнивание : Соединение по промежуткам
Продолжительность промежутка : 40 мс. (1,00 видеокадр)
Время предзагрузки промежутка : 504 ms
Библиотека кодирования : LAME3.97
Настройки программы : -m s -V 4 -q 2 -lowpass 17 -b 128

Аудио #2
Идентификатор : 2
Формат : MPEG Audio
Версия формата : Version 1
Профиль формата : Layer 3
Режим : Joint stereo
Расширение режима : MS Stereo
Идентификатор кодека : 55
Идентификатор кодека/Подсказка : MP3
Продолжительность : 1 ч. 35 м.
Вид битрейта : Постоянный
Битрейт : 128 Кбит/сек
Каналы : 2 канала
Частота : 48,0 КГц
Метод сжатия : С потерями
Размер потока : 87,0 Мбайт (6%)
Выравнивание : Соединение по промежуткам
Продолжительность промежутка : 40 мс. (1,00 видеокадр)
Время предзагрузки промежутка : 504 ms





pb.wtf



Скачать Мелинда и Мелинда через торрент http://lostpic.net/images/5ef9bbdfd6ef0be81828931af6ba07f3.jpg Скачать фильм Мелинда и Мелинда через торрент бесплантно в хорошем качестве Описание: За столиком ресторана друзья обсуждают, чего больше в жизни — комического или трагического. Автор успешных комедий убежден, ... 10 10 1
Info! Золотая раздача, скачанное не засчитывается.
Торрент: Зарегистрирован [2011-09-10 14:31] · скачан: 13 раз
Статус: √ проверено
Размер: 1.36 GB
Как cкачать? Как скачать Мелинда и Мелинда через торрент | UTorrent

28-11-2019 20:33  

Отключить всю рекламу на сайте

    Дорогой пользователь! Огромная просьба, поблагодарите релизера, оцените раздачу и оставьте свои комментарий, если Вы скачали Мелинда и Мелинда через торрент бесплатно! Внесите свою лепту в развитие PiratBit!
    Комментировать посты могут только пользователи прошедшие не сложную регистрацию
    Показать сообщения:    

    Мелинда и Мелинда через торрент
    Скачать бесплатно Мелинда и Мелинда
    Мелинда и Мелинда скачать торрент
    Мелинда и Мелинда смотреть онлайн
    Cкачать фильм Мелинда и Мелинда бесплатно
    Мелинда и Мелинда скачать торрент в хорошем качестве
    Мелинда и Мелинда смотреть онлайн бесплатно в хорошем качестве


    Вы не можете начинать темы
    Вы не можете отвечать на сообщения
    Вы не можете редактировать свои сообщения
    Вы не можете удалять свои сообщения
    Вы не можете голосовать в опросах
    Вы не можете прикреплять файлы к сообщениям
    Вы можете скачивать файлы