1 сезон

3 сезон

iTunes

1

iTunes

MVO

iTunes

13

1 сезон

RePack

30

Deluxe

pack

Лицензия

ВАЖНО

ИГРА 18+

pack

RePack

MK11

RePack

jed

RePack

fifa19

RePack

RDR2

RePack

NEED FOR SPEED™ PAYBACK

4 сезон

9 сезон

Бесстыжие 9 сезон

Все сериалы

все сериалы на PB.wtf

RePack

FAR CRY 5

Anonymous, доброй ночи, мы катастрофически не успеваем собрать деньги на оплату серверов, помогите нам пожалуйста 5,10,15р., для нас важна любая помощь . В качестве благодарности мы отключим Вам всю рекламу на сайте (укажите свой ник в строку Ваше имя)!

×
  
Magnet ссылка

Ловушка / Resident, The (Антти Джокинен) [2010 г., триллер, драма, DVD5, лицензия] pb.wtf

Ловушка через торрент pb.wtf

Размер: 4.36 GB | Добавлен: 9 лет назад | Торрент скачан:26 раз
Скачать  

16-09-2011 04:11 Ловушка Скачать торрент  

Ловушка / Resident, The
«Твой дом - его крепость»

Год выпуска: 2010
Страна: США, Великобритания
Жанр: триллер, драма
Продолжительность: 91 мин.
Перевод: Профессиональный (многоголосый, закадровый)
Тип релиза: Лицензия

Режиссер: Антти Джокинен
Продюссер: Кэри Брокау, Гай Ист, Саймон Оукс
Сценарий: Антти Джокинен, Роберт Орр

Бюджет: $20 000 000

R
-Лицам до 17 лет обязательно присутствие взрослого
Мировой рейтинг IMDB 5.20 (6 929)


В ролях: Джеффри Дин Морган, Хилари Суэнк, Кристофер Ли, Ли Пейс, Майкл Масси, Онжаню Эллис, Кейша Олсен, Пенни Бальфур, Александрия Морроу, Сэнди К Шелби и др

Описание: Миллионы одиноких женщин снимают квартиры. Они не задумываются о том, кто жил там до них. Они не знают хозяев. Им не приходит в голову сменить замок.Расставшись с мужем, молодая врач Джульет Дермер начинает новую жизнь в просторном съемном лофте. Недорогая квартира оказывается настолько хороша, что Джулия не может поверить своему счастью. Вскоре, однако, она начинает подозревать, что не одна в собственном доме. С ужасом она осознает, что симпатичный домовладелец Макс избрал ее для своей маниакальной игры в кошки-мышки.
Качество: DVD5
Формат: DVD Video
Видео кодек: MPEG2
Аудио кодек: AC3
Видео: MPEG 2, 720x576, 1024x576 (16/9), 25.000 fps, 8 904 Kbps (0.536 bit/pixel)
Аудио: 1: Russian (Dolby AC3, 6 ch), 256 Kbps
Аудио: 2: English (Dolby AC3, 6 ch), 256 Kbps

Код:

General
Complete name                            : D:\Мои документы\Фильмы\The_Resident_DVD5\VIDEO_TS\VTS_01_0.VOB
Format                                   : MPEG-PS
File size                                : 123 MiB
Duration                                 : 30s 16ms
Overall bit rate                         : 34.4 Mbps

Video
ID                                       : 224 (0xE0)
Format                                   : MPEG Video
Format version                           : Version 2
Format profile                           : Main@Main
Format settings, BVOP                    : Yes
Format settings, Matrix                  : Custom
Format settings, GOP                     : M=3, N=12
Duration                                 : 30s 0ms
Bit rate mode                            : Variable
Bit rate                                 : 33.4 Mbps
Maximum bit rate                         : 8 000 Kbps
Width                                    : 720 pixels
Height                                   : 576 pixels
Display aspect ratio                     : 16:9
Frame rate                               : 25.000 fps
Standard                                 : PAL
Color space                              : YUV
Chroma subsampling                       : 4:2:0
Bit depth                                : 8 bits
Scan type                                : Interlaced
Scan order                               : Top Field First
Compression mode                         : Lossy
Bits/(Pixel*Frame)                       : 3.223
Stream size                              : 120 MiB (97%)

Audio
ID                                       : 189 (0xBD)-128 (0x80)
Format                                   : AC-3
Format/Info                              : Audio Coding 3
Mode extension                           : CM (complete main)
Muxing mode                              : DVD-Video
Duration                                 : 30s 16ms
Bit rate mode                            : Constant
Bit rate                                 : 256 Kbps
Channel(s)                               : 6 channels
Channel positions                        : Front: L C R, Side: L R, LFE
Sampling rate                            : 48.0 KHz
Bit depth                                : 16 bits
Compression mode                         : Lossy
Stream size                              : 938 KiB (1%)

Text #1
ID                                       : 189 (0xBD)-32 (0x20)
Format                                   : RLE
Format/Info                              : Run-length encoding
Muxing mode                              : DVD-Video

Text #2
ID                                       : 189 (0xBD)-33 (0x21)
Format                                   : RLE
Format/Info                              : Run-length encoding
Muxing mode                              : DVD-Video

Text #3
ID                                       : 189 (0xBD)-34 (0x22)
Format                                   : RLE
Format/Info                              : Run-length encoding
Muxing mode                              : DVD-Video

pb.wtf



Скачать Ловушка через торрент http://i053.radikal.ru/1109/ca/3e19e9bd6184.jpg Скачать фильм Ловушка через торрент бесплантно в хорошем качестве Описание: Миллионы одиноких женщин снимают квартиры. Они не задумываются о том, кто жил там до них. Они не знают хозяев. Им не приходит ... 4.7 10 3
Info! Золотая раздача, скачанное не засчитывается.
Торрент: Зарегистрирован [2011-09-16 04:11] · скачан: 26 раз
Статус: √ проверено
Размер: 4.36 GB
Как cкачать? Как скачать Ловушка через торрент | UTorrent

% Раздел Тема Автор DL S | L
Фильмы 2011 [ 1.37 GB ] Ловушка / The Resident [2010 HDRip MVO ] TekkenxD Скачать
1 | 0
Фильмы 2010 [ 1.46 GB ] Ловушка / The Resident [2010 HDRip] Anonymous Скачать
1 | 0
Фильмы 2010 [ 1.37 GB ] Ловушка / The Resident [2010 HDRip лицензия] SD Скачать
1 | 0
Фильмы 2010 [ 703 MB ] Ловушка / The Resident [2010 BDRip] rulya74 Скачать
1 | 0
Фильмы [HD 720p, 1080p] (Хороший звук DUB, MVO) [ 4.4 GB ] Ловушка / The Resident [2010 BDRip лицензия] DEVI Скачать
1 | 0
Фильмы 2010 [ 747 MB ] Ловушка / Resident The [2010 HDRip] coc900 Скачать
1 | 0
T Фильмы [HD 720p, 1080p] (Хороший звук DUB, MVO) [ 6.84 GB ] Ловушка / The Resident [2011 BDRip 1080p] diletant Скачать
1 | 0

28-11-2019 20:33  

Отключить всю рекламу на сайте

16-09-2011 17:19 Ловушка Скачать торрент  

shuller Большое спасибоpb.wtf



    Дорогой пользователь! Огромная просьба, поблагодарите релизера, оцените раздачу и оставьте свои комментарий, если Вы скачали Ловушка через торрент бесплатно! Внесите свою лепту в развитие PiratBit!
    Комментировать посты могут только пользователи прошедшие не сложную регистрацию
    Показать сообщения:    

    Ловушка через торрент
    Скачать бесплатно Ловушка
    Ловушка скачать торрент
    Ловушка смотреть онлайн
    Cкачать фильм Ловушка бесплатно
    Ловушка скачать торрент в хорошем качестве
    Ловушка смотреть онлайн бесплатно в хорошем качестве


    Вы не можете начинать темы
    Вы не можете отвечать на сообщения
    Вы не можете редактировать свои сообщения
    Вы не можете удалять свои сообщения
    Вы не можете голосовать в опросах
    Вы не можете прикреплять файлы к сообщениям
    Вы можете скачивать файлы