Ссылка на приватное зеркало нашего сайта всего за 1$. Внимание количество ограничено!!!

2 сезон

iTunes

1 сезон

1

2 сезон

2 сезон

iTunes

1 сезон

RePack

30

Ultimate

ВАЖНО

ИГРА 18+

pack

RePack

MK11
pack

Забери бонус

RePack

jed

!!Акция!!

Alien_Rage

RePack

fifa19

RePack

Assassins Creed: Odyssey

RePack

NEED FOR SPEED™ PAYBACK

4 сезон

9 сезон

Бесстыжие 9 сезон

Все сериалы

все сериалы на PB.wtf

RePack

FAR CRY 5
  

Защитница / The Protector (1 сезон: 13 серий из 13) (Питер О’Фаллон, Сэнфорд Букставер) [2011 г., драма, детектив, HDTVRip] (NewStudio) pb.wtf

Защитница через торрент pb.wtf

Размер: 5.08 GB | Добавлен: 8 лет 10 мес. назад | Торрент скачан:12 раз
Скачать  

17-09-2011 09:59 Защитница Скачать торрент  

Защитница / The Protector
(1 сезон: 13 серий из 13)


Год выпуска: 2011
Страна: США, ABC Studios / CBS Television Studios / Keslow Cameras
Жанр: драма, детектив
Продолжительность: ~00:43:00
Перевод: Любительский (двухголосый, закадровый) [NewStudio]

Режиссер: Питер О’Фаллон, Сэнфорд Букставер
Продюссер: Джоди Ворф, Эль Трайдман, Джеффри Белл
Сценарий: Джеффри Белл, Майкл Нанкин, Майкл С. Черначин

Премьера в мире: 12 июня 2011

IMDb: 6.50 (39)
Кинопоиск: 5.696 39

В ролях: Элли Уокер, Тиша Кэмпбелл, Мигель Феррер, Террелл Тилфорд, Крис Пэйн, Гилберт Томас, Робинсон Сэйдж, Райан Ларри, Джо Кэмпбелл, Джеймс Хэнлон, Карли Ротенберг



Описание: Глория Шеппард - матери-одиночки и детектива убойного отдела полиции Лос-Анджелеса. Она пытается сбалансировать свою личную и профессиональную жизнь, в то время когда ей приходится воспитывать двоих детей и жить под одной крышей с проблемным младшим братом Дэйви.

Качество: HDTVRip
Формат: AVI
Видео кодек: XviD
Аудио кодек: MP3

Видео: 624x352 (1.77:1), 23.976 fps, XviD build 64 ~1039 kbps avg, 0.20 bit/pixel
Аудио №1: 48 kHz, MPEG Layer 3, 2 ch, ~128.00 kbps avg [ru]
Аудио №2: 48 kHz, MPEG Layer 3, 2 ch, ~130.70 kbps avg [en]

Релиз от:
Над релизом работали:
Озвучка: Gutta, Caps
Перевод: teatralka
Подготовка видео: Koss
Работа со звуком: Baggio
E:\ЗАГРУЗКА\Защитница 1 сезон\Zashchitnitsa.1.sezon.8.seriya.2011.XviD.HDTVRip.[NewStudio].avi
General
Complete name : E:\ЗАГРУЗКА\Защитница 1 сезон\Zashchitnitsa.1.sezon.8.seriya.2011.XviD.HDTVRip.[NewStudio].avi
Format : AVI
Format/Info : Audio Video Interleave
File size : 400 MiB
Duration : 42mn 25s
Overall bit rate : 1 319 Kbps
Writing application : VirtualDubMod 1.5.10.2 (build 2540/release)
Writing library : VirtualDubMod build 2540/release
Video #0
ID : 0
Format : MPEG-4 Visual
Format profile : Advanced Simple@L5
Format settings, BVOP : Yes
Format settings, QPel : No
Format settings, GMC : No warppoints
Format settings, Matrix : Default (MPEG)
Codec ID : XVID
Codec ID/Hint : XviD
Duration : 42mn 25s
Bit rate : 1 043 Kbps
Width : 624 pixels
Height : 352 pixels
Display aspect ratio : 16:9
Frame rate : 23.976 fps
Resolution : 8 bits
Colorimetry : 4:2:0
Scan type : Progressive
Bits/(Pixel*Frame) : 0.198
Stream size : 317 MiB (79%)
Writing library : XviD 64
Audio #1
ID : 1
Format : MPEG Audio
Format version : Version 1
Format profile : Layer 3
Format_Settings_Mode : Joint stereo
Format_Settings_ModeExtension : MS Stereo
Codec ID : 55
Codec ID/Hint : MP3
Duration : 42mn 25s
Bit rate mode : Constant
Bit rate : 128 Kbps
Channel(s) : 2 channels
Sampling rate : 48.0 KHz
Stream size : 38.8 MiB (10%)
Alignment : Aligned on interleaves
Interleave, duration : 42 ms (1.00 video frame)
Interleave, preload duration : 504 ms
Audio #2
ID : 2
Format : MPEG Audio
Format version : Version 1
Format profile : Layer 3
Format_Settings_Mode : Joint stereo
Codec ID : 55
Codec ID/Hint : MP3
Duration : 42mn 25s
Bit rate mode : Variable
Bit rate : 130 Kbps
Nominal bit rate : 128 Kbps
Channel(s) : 2 channels
Sampling rate : 48.0 KHz
Stream size : 39.5 MiB (10%)
Alignment : Aligned on interleaves
Interleave, duration : 24 ms (0.58 video frame)
Interleave, preload duration : 227 ms
Writing library : LAME3.90.
Encoding settings : -m j -V 4 -q 2 -lowpass 17.6 --abr 128
01. Пилот (Pilot)
02. Наживка (Help)
03. Клас (Class)
04. Ложечки (Spoon)
05. Изменения (Revisions)
06. Говядина (Beef)
07. Крылья (Wings)
08. Выстрелы (Bangs)
09. Романы (Affairs)
10. Крысы (Rats)
11. Кровь (Blood)
12. Призраки (Ghosts)
13. Сейф (Safe)
Внимание! Раздача ведётся путём добавления новых серий; при каждом добавлении создётся новый торрент. Чтобы начать докачку новой серии, пользователям необходимо сделать следующее:
(1) остановить скачивание,
(2) удалить старый торрент у себя из клиента (старые серии удалять не надо),
(3) скачать новый торрент и запустить его у себя в клиенте вместо старого, при этом указать клиенту путь в старую папку куда и должно происходить скачивание новых серий.
Ваш клиент при этом должен произвести хеширование (проверку) старой папки (если не производит сам - помогите ему сделать это), и будет докачивать только те серии которых у вас ещё нет. Старые серии при этом не удаляются, а продолжают раздаваться!
Eсли вы уже удалили старые серии, то предотвратить повторную закачку старых серий можно, отжав галочку в соответсвующих местах при запуске нового торрента.


Добавлена 13 серия.pb.wtf



Скачать Защитница через торрент http://i31.fastpic.ru/big/2011/0917/23/5e3a896bae8cf8dfe4ebb45f76fd3d23.jpg Скачать фильм Защитница через торрент бесплантно в хорошем качестве Описание: Глория Шеппард - матери-одиночки и детектива убойного отдела полиции Лос-Анджелеса. Она пытается сбалансировать свою личную и ... 4 10 1
Info! Золотая раздача, скачанное не засчитывается.
Торрент: Зарегистрирован [2012-01-14 09:44] · скачан: 12 раз
Статус: √ проверено
Размер: 5.08 GB
Как cкачать? Как скачать Защитница через торрент | qTorrent

% Раздел Тема Автор DL S | L
Зарубежные сериалы [ 13.31 GB ] Защитница / The Protector [2011 HDTVRip 720p] Rastafari Скачать
1 | 0


Последний раз редактировалось: lyokaa (2012-01-14 09:44), всего редактировалось 8 раз(а)

28-11-2019 20:33  

Отключить всю рекламу на сайте

14-01-2012 09:45 Защитница Скачать торрент  

Добавлена 13 серия.pb.wtf



26-09-2012 15:24 Защитница Скачать торрент  

Раздавать будем или как?pb.wtf



    Дорогой пользователь! Огромная просьба, поблагодарите релизера, оцените раздачу и оставьте свои комментарий, если Вы скачали Защитница через торрент бесплатно! Внесите свою лепту в развитие PiratBit!
    Комментировать посты могут только пользователи прошедшие не сложную регистрацию
    Показать сообщения:    

    Защитница через торрент
    Скачать бесплатно Защитница
    Защитница скачать торрент
    Защитница смотреть онлайн
    Cкачать фильм Защитница бесплатно
    Защитница скачать торрент в хорошем качестве
    Защитница смотреть онлайн бесплатно в хорошем качестве


    Вы не можете начинать темы
    Вы не можете отвечать на сообщения
    Вы не можете редактировать свои сообщения
    Вы не можете удалять свои сообщения
    Вы не можете голосовать в опросах
    Вы не можете прикреплять файлы к сообщениям
    Вы можете скачивать файлы