2 сезон

iTunes

MVO

1

2 сезон

iTunes

iTunes

1 сезон

RePack

30

Новинка

ВАЖНО

ИГРА 18+

pack

RePack

MK11
pack

Легкие деньги

RePack

jed

RePack

fifa19

RePack

RDR2

RePack

NEED FOR SPEED™ PAYBACK

4 сезон

9 сезон

Бесстыжие 9 сезон

Все сериалы

все сериалы на PB.wtf

RePack

FAR CRY 5

Anonymous, доброй ночи, мы не успеваем собрать деньги на оплату серверов за декабрь и январь, помогите нам пожалуйста в это трудное время. В качестве благодарности мы отключим Вам всю рекламу на сайте (укажите свой ник в строку Ваше имя)!

×
  
Magnet ссылка

Сумасшедшая езда 3Д / Drive Angry 3D (Патрик Люссье / Patrick Lussier) [2011, фэнтези, боевик, триллер, криминал, HDrip] Anaglyph / Анаглиф pb.wtf

Сумасшедшая езда 3Д через торрент pb.wtf

Размер: 1.57 GB | Добавлен: 9 лет 4 мес. назад | Торрент скачан:609 раз
Скачать  

17-09-2011 17:02 Сумасшедшая езда 3Д Скачать торрент  

Сумасшедшая езда 3D / Drive Angry 3D

Год выпуска: 2011
Страна: США
Жанр: фэнтези, боевик, триллер, криминал
Продолжительность: 01:44:46
Перевод: Профессиональный (полное дублирование) [Лицензия]

Режиссер: Патрик Люссье
Продюссер: Рене Бессон, Майкл Де Лука, Эд Кэйтелл III
Сценарий: Тодд Фармер, Патрик Люссье

Бюджет: $50 000 000
Премьера в мире: 24 февраля 2011

R
-Лицам до 17 лет обязательно присутствие взрослого
Мировой рейтинг IMDB 5.60 (26 382)


В ролях: Николас Кейдж, Эмбер Хёрд, Уильям Фихтнер, Билли Бёрк, Дэвид Морс, Тодд Фармер, Криста Кэмпбелл, Шарлотта Росс, Том Аткинс, Джек Мак

Описание: В центре событий герой, идущий по следу негодяев, убивших его дочь. Главный герой «слетает с катушек», прыгает за руль своего автомобиля и начинает мстить, оставляя по обочинам дороги трупы похитителей.

Доп. информация: премьера (мир): 24 февраля 2011
премьера (РФ): 3 марта 2011
релиз на DVD: 23 июня 2011
релиз на Blu-Ray: 23 июня 2011
Формат 3D: Анаглиф red-cyan
Внимание! Для просмотра нужны анаглифные красно-синезеленые очки.

Качество: HDRip
Формат: AVI
Видео кодек: XviD
Аудио кодек: AC3
Видео: 720x416 (1.73:1), 23.970 fps, XviD MPEG-4 ~1748 kbps avg, 0.24 bit/pixel
Аудио: 48 kHz, AC3 Dolby Digital, 5 ch, ~384.00 kbps avg
[Общее
Полное имя :Sumashedshaja.ezda.3D.2011.XviD.DVDRip.Zona-X.avi
Формат : AVI
Формат/Информация : Audio Video Interleave
Размер файла : 1,57 Гбайт
Продолжительность : 1 ч. 44 м.
Общий поток : 2142 Кбит/сек
Программа кодирования : Nandub v1.0rc2
Библиотека кодирования : VirtualDub build 24463/release

Видео
Идентификатор : 0
Формат : MPEG-4 Visual
Профиль формата : Advanced Simple@L5
Параметр BVOP формата : Нет
Параметр QPel формата : Нет
Параметр GMC формата : Без точки перехода
Параметр матрицы формата : Выборочная
Идентификатор кодека : XVID
Идентификатор кодека/Подсказка : XviD
Продолжительность : 1 ч. 44 м.
Битрейт : 1749 Кбит/сек
Ширина : 720 пикс.
Высота : 416 пикс.
Соотношение сторон : 16:9
Частота кадров : 23,976 кадр/сек
Цветовое пространство : YUV
Подвыборка цветности : 4:2:0
Битовая глубина : 8 бит
Тип развёртки : Прогрессивная
Метод сжатия : С потерями
Бит/(Пиксели*Кадры) : 0.244
Размер потока : 1,28 Гбайт (82%)
Библиотека кодирования : XviD 64

Аудио
Идентификатор : 1
Формат : AC-3
Формат/Информация : Audio Coding 3
Идентификатор кодека : 2000
Продолжительность : 1 ч. 44 м.
Вид битрейта : Постоянный
Битрейт : 384 Кбит/сек
Каналы : 6 каналов
Частота : 48,0 КГц
Метод сжатия : С потерями
Размер потока : 288 Мбайт (18%)
Выравнивание : Разделение по промежуткам
Продолжительность промежутка : 42 мс. (1,00 видеокадр)
Время предзагрузки промежутка : 500 ms]




pb.wtf



Скачать Сумасшедшая езда 3Д через торрент http://i30.fastpic.ru/big/2011/0917/46/f85be1dc8a250cc07eb69369be993e46.jpg Скачать фильм Сумасшедшая езда 3Д через торрент бесплантно в хорошем качестве Описание: В центре событий герой, идущий по следу негодяев, убивших его дочь. Главный герой «слетает с катушек», прыгает за руль своего ... 9 10 6
Info! Золотая раздача, скачанное не засчитывается.
Торрент: Зарегистрирован [2011-09-17 17:02] · скачан: 609 раз
Статус: √ проверено
Размер: 1.57 GB
Как cкачать? Как скачать Сумасшедшая езда 3Д через торрент | UTorrent

28-11-2019 20:33  

Отключить всю рекламу на сайте


15-12-2011 15:10 Сумасшедшая езда 3Д Скачать торрент  

из коментов только благодарность-заливайте ещеpb.wtf



    Дорогой пользователь! Огромная просьба, поблагодарите релизера, оцените раздачу и оставьте свои комментарий, если Вы скачали Сумасшедшая езда 3Д через торрент бесплатно! Внесите свою лепту в развитие PiratBit!
    Комментировать посты могут только пользователи прошедшие не сложную регистрацию
    Показать сообщения:    

    Сумасшедшая езда 3Д через торрент
    Скачать бесплатно Сумасшедшая езда 3Д
    Сумасшедшая езда 3Д скачать торрент
    Сумасшедшая езда 3Д смотреть онлайн
    Cкачать фильм Сумасшедшая езда 3Д бесплатно
    Сумасшедшая езда 3Д скачать торрент в хорошем качестве
    Сумасшедшая езда 3Д смотреть онлайн бесплатно в хорошем качестве


    Вы не можете начинать темы
    Вы не можете отвечать на сообщения
    Вы не можете редактировать свои сообщения
    Вы не можете удалять свои сообщения
    Вы не можете голосовать в опросах
    Вы не можете прикреплять файлы к сообщениям
    Вы можете скачивать файлы